Rss
Calendar
«    July 2018    »
MonTueWedThuFriSatSun
 1
2345678
9101112131415
16171819202122
23242526272829
3031 
Friends of the site
» » The Princess Diaries 2 Royal Engagement (2004) BluRay 720p x264 [Dual Au][Hindi+Eng]
  • Author: wroser
  • |
  • Comments: 0
  • |
  • Views: 21
The Princess Diaries 2 Royal Engagement (2004) BluRay 720p x264 [Dual Au][Hindi+Eng]






Format                                   : Matroska
Format version                           : Version 4 / Version 2
File size                                : 991 MiB
Duration                                 : 1 h 53 min
Overall bit rate                         : 1 221 kb/s
Movie name                               : The Princess Diaries 2 Royal Engagement (2004) BluRay 720p [Dual Audio] [Hindi - Eng DD 5.1] x264 AAC Esub -=!Katyayan!=-
Encoded date                             : UTC 2018-06-07 03:58:39
Writing application                      : mkvmerge v19.0.0 ('Brave Captain') 32-bit
Writing library                          : libebml v1.3.5 + libmatroska v1.4.8
Cover                                    : Yes
Attachments                              : The Princess Diaries 2 Royal Engagement (2004) Cover

Video
ID                                       : 1
Format                                   : AVC
Format/Info                              : Advanced Video Codec
Format profile                           : High@L5.2
Format settings                          : CABAC / 4 Ref Frames
Format settings, CABAC                   : Yes
Format settings, RefFrames               : 4 frames
Codec ID                                 : V_MPEG4/ISO/AVC
Duration                                 : 1 h 53 min
Bit rate                                 : 901 kb/s
Width                                    : 1 280 pixels
Height                                   : 720 pixels
Display aspect ratio                     : 16:9
Frame rate mode                          : Constant
Frame rate                               : 23.976 (24000/1001) FPS
Color space                              : YUV
Chroma subsampling                       : 4:2:0
Bit depth                                : 8 bits
Scan type                                : Progressive
Bits/(Pixel*Frame)                       : 0.041
Stream size                              : 729 MiB (74%)
Title                                    : The Princess Diaries 2 Royal Engagement (2004) BluRay 720p [Dual Audio] [Hindi - Eng DD 5.1] x264 AAC Esub -=!Katyayan!=-
Writing library                          : x264 core 148 r2708 86b7198
Language                                 : English
Default                                  : Yes
Forced                                   : No
Color range                              : Limited
Color primaries                          : BT.709
Transfer characteristics                 : BT.709
Matrix coefficients                      : BT.709

Audio #1
ID                                       : 2
Format                                   : AAC
Format/Info                              : Advanced Audio Codec
Format profile                           : HE-AAC / LC
Format settings                          : Explicit
Codec ID                                 : A_AAC-2
Duration                                 : 1 h 53 min
Bit rate                                 : 128 kb/s
Channel(s)                               : 2 channels
Channel positions                        : Front: L R
Sampling rate                            : 48.0 kHz / 24.0 kHz
Frame rate                               : 23.438 FPS (1024 SPF)
Compression mode                         : Lossy
Delay relative to video                  : 1 s 10 ms
Stream size                              : 104 MiB (10%)
Title                                    : -=!Katyayan!=-
Language                                 : Hindi
Default                                  : Yes
Forced                                   : Yes

Audio #2
ID                                       : 3
Format                                   : AAC
Format/Info                              : Advanced Audio Codec
Format profile                           : LC
Codec ID                                 : A_AAC-2
Duration                                 : 1 h 53 min
Bit rate                                 : 192 kb/s
Channel(s)                               : 6 channels
Channel positions                        : Front: L C R, Side: L R, LFE
Sampling rate                            : 48.0 kHz
Frame rate                               : 46.875 FPS (1024 SPF)
Compression mode                         : Lossy
Delay relative to video                  : -21 ms
Stream size                              : 156 MiB (16%)
Title                                    : -=!Katyayan!=-
Language                                 : English
Default                                  : No
Forced                                   : No

Text
ID                                       : 4
Format                                   : UTF-8
Codec ID                                 : S_TEXT/UTF8
Codec ID/Info                            : UTF-8 Plain Text
Duration                                 : 1 h 53 min
Bit rate                                 : 75 b/s
Count of elements                        : 1665
Stream size                              : 62.7 KiB (0%)
Title                                    : -=!Katyayan!=-
Language                                 : English
Default                                  : Yes
Forced                                   : Yes 



The Princess Diaries 2 Royal Engagement (2004) BluRay 720p x264 [Dual Au][Hindi+Eng]

SINGLE DIRECT FAST LINKS
http://www.heroupload.us/e8324e4a441fde8f/The.Princess.Diaries.2.Royal.Engagement.2004.BluRay.720p.Dual+Audio.Hindi+Eng.DD.5.1.x264.AAC.Esub-Katyayan.mkv


http://filefloater.com/1joL/The.Princess.Diaries.2.Royal.Engagement.2004.BluRay.720p.Dual+Audio.Hindi+Eng.DD.5.1.x264.AAC.Esub-Katyayan.mkv



Add a comment

Name:* E-Mail:*
Bold Italic Underline Strike | Align left Center Align right | Insert smilies Insert link URLInsert protected URL Select color | Add Hidden Text Insert Quote Convert selected text from selection to Cyrillic (Russian) alphabet Insert spoiler
Enter the code below: *