Rss
Calendar
«    June 2018    »
MonTueWedThuFriSatSun
 123
45678910
11121314151617
18192021222324
252627282930 
Friends of the site
» » Future World (2018) 1080p WEB-DL DD5.1 H264-FGT
  • Author: wroser
  • |
  • Comments: 0
  • |
  • Views: 37
Future World (2018) 1080p WEB-DL DD5.1 H264-FGT





http://imdb.com/title/tt5737536/

Video
ID                                       : 1
Format                                   : AVC
Format/Info                              : Advanced Video Codec
Format profile                           : High@L4
Format settings                          : CABAC / 5 Ref Frames
Format settings, CABAC                   : Yes
Format settings, ReFrames                : 5 frames
Codec ID                                 : V_MPEG4/ISO/AVC
Duration                                 : 1 h 28 min
Bit rate                                 : 4 583 kb/s
Width                                    : 1 912 pixels
Height                                   : 792 pixels
Display aspect ratio                     : 2.40:1
Frame rate mode                          : Constant
Frame rate                               : 23.976 FPS
Color space                              : YUV
Chroma subsampling                       : 4:2:0
Bit depth                                : 8 bits
Scan type                                : Progressive
Bits/(Pixel*Frame)                       : 0.126
Stream size                              : 2.82 GiB (92%)
Title                                    : Future.World.2018.1080p.WEB-DL.DD5.1.H264-FGT
Language                                 : English
Default                                  : Yes
Forced                                   : No
Color range                              : Limited
Color primaries                          : BT.709
Transfer characteristics                 : BT.709
Matrix coefficients                      : BT.709

Audio
ID                                       : 2
Format                                   : AC-3
Format/Info                              : Audio Coding 3
Codec ID                                 : A_AC3
Duration                                 : 1 h 28 min
Bit rate mode                            : Constant
Bit rate                                 : 384 kb/s
Channel(s)                               : 6 channels
Channel positions                        : Front: L C R, Side: L R, LFE
Sampling rate                            : 48.0 kHz
Frame rate                               : 31.250 FPS (1536 SPF)
Bit depth                                : 16 bits
Compression mode                         : Lossy
Delay relative to video                  : -42 ms
Stream size                              : 242 MiB (8%)
Title                                    : Future.World.2018.1080p.WEB-DL.DD5.1.H264-FGT
Language                                 : English
Service kind                             : Complete Main
Default                                  : Yes
Forced                                   : No

Text
ID                                       : 3
Format                                   : UTF-8
Codec ID                                 : S_TEXT/UTF8
Codec ID/Info                            : UTF-8 Plain Text
Duration                                 : 1 h 23 min
Bit rate                                 : 32 b/s
Count of elements                        : 797
Stream size                              : 19.6 KiB (0%)
Language                                 : English
Default                                  : Yes
Forced                                   : No

Menu
00:00:00.000                             : en:1
00:04:31.000                             : en:2
00:18:08.000                             : en:3
00:32:22.000                             : en:4
00:42:18.000                             : en:5
00:52:54.000                             : en:6
01:05:29.000                             : en:7
01:17:34.000                             : en:8
01:23:23.000                             : en:9

Future World (2018) 1080p WEB-DL DD5.1 H264-FGT


SINGLE DIRECT FAST LINKS
http://www.heroupload.us/9530a7ae0ab1be2c/Future.World.2018.1080p.WEB-DL.DD5.1.H264-FGT.mkv


http://filefloater.com/1jeC/Future.World.2018.1080p.WEB-DL.DD5.1.H264-FGT.mkv

1GB LINKS

http://www.heroupload.us/992f11d70aa19308/Future.World.2018.1080p.WEB-DL.DD5.1.H264-FGT.part1.rar
http://www.heroupload.us/b05bbc7341e04821/Future.World.2018.1080p.WEB-DL.DD5.1.H264-FGT.part2.rar
http://www.heroupload.us/4d1323f344607df3/Future.World.2018.1080p.WEB-DL.DD5.1.H264-FGT.part3.rar
http://www.heroupload.us/f60fa1dedb648a4b/Future.World.2018.1080p.WEB-DL.DD5.1.H264-FGT.part4.rar



http://filefloater.com/1jeD/Future.World.2018.1080p.WEB-DL.DD5.1.H264-FGT.part1.rar
http://filefloater.com/1jeE/Future.World.2018.1080p.WEB-DL.DD5.1.H264-FGT.part2.rar
http://filefloater.com/1jeF/Future.World.2018.1080p.WEB-DL.DD5.1.H264-FGT.part3.rar
http://filefloater.com/1jeG/Future.World.2018.1080p.WEB-DL.DD5.1.H264-FGT.part4.rar

Add a comment

Name:* E-Mail:*
Bold Italic Underline Strike | Align left Center Align right | Insert smilies Insert link URLInsert protected URL Select color | Add Hidden Text Insert Quote Convert selected text from selection to Cyrillic (Russian) alphabet Insert spoiler
Enter the code below: *