Rss
Calendar
«    June 2018    »
MonTueWedThuFriSatSun
 123
45678910
11121314151617
18192021222324
252627282930 
Friends of the site
» » Kaalakaandi (2018) 720p - WEB-HD - AVC - AAC-Team IcTv
  • Author: wroser
  • |
  • Comments: 0
  • |
  • Views: 34
Kaalakaandi (2018) 720p - WEB-HD - AVC - AAC-Team IcTv






Movie Info
Banner :
Year : 2018
Cast : Saif Ali Khan, Neil Bhoopalam, Amyra Dastur |
Video: AVC
Audio : AAC
Genre : Comedy, Thriller
Subtitles : None
Runtime : 1hr 44min xx


General
Format                      : MPEG-4
Format profile              : Base Media
Codec ID                    : isom (isom/iso2/avc1/mp41)
File size                   : 1.51 GiB
Duration                    : 1 h 44 min
Overall bit rate mode       : Constant
Overall bit rate            : 2 066 kb/s
Writing application         : Lavf58.2.103

Video
ID                          : 1
Format                      : AVC
Format/Info                 : Advanced Video Codec
Format profile              : Main@L3.1
Format settings, CABAC      : Yes
Format settings, RefFrames  : 1 frame
Format settings, GOP        : M=1, N=25
Codec ID                    : avc1
Codec ID/Info               : Advanced Video Coding
Duration                    : 1 h 44 min
Bit rate mode               : Constant
Bit rate                    : 2 000 kb/s
Width                       : 1 280 pixels
Height                      : 720 pixels
Display aspect ratio        : 16:9
Frame rate mode             : Constant
Frame rate                  : 25.000 FPS
Color space                 : YUV
Chroma subsampling          : 4:2:0
Bit depth                   : 8 bits
Scan type                   : Progressive
Bits/(Pixel*Frame)          : 0.087
Stream size                 : 1.46 GiB (97%)

Audio
ID                          : 2
Format                      : AAC
Format/Info                 : Advanced Audio Codec
Format profile              : LC
Codec ID                    : 40
Duration                    : 1 h 44 min
Bit rate mode               : Constant
Bit rate                    : 61.4 kb/s
Channel(s)                  : 2 channels
Channel positions           : Front: L R
Sampling rate               : 48.0 kHz
Frame rate                  : 46.875 FPS (1024 SPF)
Compression mode            : Lossy
Stream size                 : 45.8 MiB (3%)
Default                     : Yes
Alternate group             : 1



Kaalakaandi (2018) 720p - WEB-HD - AVC - AAC-Team IcTvKaalakaandi (2018) 720p - WEB-HD - AVC - AAC-Team IcTvKaalakaandi (2018) 720p - WEB-HD - AVC - AAC-Team IcTvKaalakaandi (2018) 720p - WEB-HD - AVC - AAC-Team IcTvKaalakaandi (2018) 720p - WEB-HD - AVC - AAC-Team IcTvKaalakaandi (2018) 720p - WEB-HD - AVC - AAC-Team IcTvKaalakaandi (2018) 720p - WEB-HD - AVC - AAC-Team IcTvKaalakaandi (2018) 720p - WEB-HD - AVC - AAC-Team IcTvKaalakaandi (2018) 720p - WEB-HD - AVC - AAC-Team IcTvKaalakaandi (2018) 720p - WEB-HD - AVC - AAC-Team IcTvKaalakaandi (2018) 720p - WEB-HD - AVC - AAC-Team IcTvKaalakaandi (2018) 720p - WEB-HD - AVC - AAC-Team IcTv

SINGLE DIRECT FAST LINKS

http://www.heroupload.us/8facf63dd96a17f1/Kaalakaandi.2018.720P.UntoucheD.WEB-HD.AVC.AAC-Team.IcTv.Exclusive.mp4



http://filefloater.com/Tc9/Kaalakaandi.2018.720P.UntoucheD.WEB-HD.AVC.AAC-Team.IcTv.Exclusive.mp4





Add a comment

Name:* E-Mail:*
Bold Italic Underline Strike | Align left Center Align right | Insert smilies Insert link URLInsert protected URL Select color | Add Hidden Text Insert Quote Convert selected text from selection to Cyrillic (Russian) alphabet Insert spoiler
Enter the code below: *