Rss
Calendar
«    July 2018    »
MonTueWedThuFriSatSun
 1
2345678
9101112131415
16171819202122
23242526272829
3031 
Friends of the site
» » Vivegam (2018) Hindi Original - 720p - WEB-HD - AVC - AAC-GM Exclusive
  • Author: wroser
  • |
  • Comments: 0
  • |
  • Views: 41
Vivegam (2018) Hindi Original - 720p - WEB-HD - AVC - AAC-GM Exclusive





General
Format                      : MPEG-4
Format profile              : Base Media / Version 2
Codec ID                    : mp42 (isom/mp42)
File size                   : 1.71 GiB
Duration                    : 2 h 11 min
Overall bit rate mode       : Variable
Overall bit rate            : 1 868 kb/s
Encoded date                : UTC 2018-06-15 14:08:45
Tagged date                 : UTC 2018-06-15 14:08:45
gsst                        : 0
gstd                        : 7870751

Video
ID                          : 1
Format                      : AVC
Format/Info                 : Advanced Video Codec
Format profile              : Main@L3.1
Format settings, CABAC      : Yes
Format settings, RefFrames  : 3 frames
Codec ID                    : avc1
Codec ID/Info               : Advanced Video Coding
Duration                    : 2 h 11 min
Bit rate                    : 1 739 kb/s
Width                       : 1 280 pixels
Height                      : 720 pixels
Display aspect ratio        : 16:9
Frame rate mode             : Constant
Frame rate                  : 25.000 FPS
Color space                 : YUV
Chroma subsampling          : 4:2:0
Bit depth                   : 8 bits
Scan type                   : Progressive
Bits/(Pixel*Frame)          : 0.075
Stream size                 : 1.59 GiB (93%)
Title                       : ISO Media file produced by Google Inc. Created on: 06/15/2018.
Encoded date                : UTC 2018-06-15 14:08:45
Tagged date                 : UTC 2018-06-15 14:08:45
Color range                 : Limited
Color primaries             : BT.709
Transfer characteristics    : BT.709
Matrix coefficients         : BT.709

Audio
ID                          : 2
Format                      : AAC
Format/Info                 : Advanced Audio Codec
Format profile              : LC
Codec ID                    : 40
Duration                    : 2 h 11 min
Bit rate mode               : Variable
Bit rate                    : 126 kb/s
Channel(s)                  : 2 channels
Channel positions           : Front: L R
Sampling rate               : 44.1 kHz
Frame rate                  : 43.066 FPS (1024 SPF)
Compression mode            : Lossy
Stream size                 : 118 MiB (7%)
Title                       : ISO Media file produced by Google Inc. Created on: 06/15/2018.
Language                    : English
Encoded date                : UTC 2018-06-15 14:08:45
Tagged date                 : UTC 2018-06-15 14:08:45


Vivegam (2018) Hindi Original - 720p - WEB-HD - AVC - AAC-GM ExclusiveVivegam (2018) Hindi Original - 720p - WEB-HD - AVC - AAC-GM ExclusiveVivegam (2018) Hindi Original - 720p - WEB-HD - AVC - AAC-GM ExclusiveVivegam (2018) Hindi Original - 720p - WEB-HD - AVC - AAC-GM ExclusiveVivegam (2018) Hindi Original - 720p - WEB-HD - AVC - AAC-GM ExclusiveVivegam (2018) Hindi Original - 720p - WEB-HD - AVC - AAC-GM Exclusive

SINGLE DIRECT FAST LINKS
http://www.heroupload.us/9278a5debde63f1d/Vivegam.2018.720p.UntoucheD.Hindi.WEB-HD.AVC.AAC-GM.Exclusive.mp4



http://filefloater.com/Tr2/Vivegam.2018.720p.UntoucheD.Hindi.WEB-HD.AVC.AAC-GM.Exclusive.mp4



Add a comment

Name:* E-Mail:*
Bold Italic Underline Strike | Align left Center Align right | Insert smilies Insert link URLInsert protected URL Select color | Add Hidden Text Insert Quote Convert selected text from selection to Cyrillic (Russian) alphabet Insert spoiler
Enter the code below: *