Rss
Calendar
«    July 2018    »
MonTueWedThuFriSatSun
 1
2345678
9101112131415
16171819202122
23242526272829
3031 
Friends of the site
» » Dashing Detective (Thupparivaalan) (2018) Hindi OrG - 720p - WEB-HD - AVC - AAC-GM
  • Author: wroser
  • |
  • Comments: 0
  • |
  • Views: 17
Dashing Detective (Thupparivaalan) (2018) Hindi OrG - 720p - WEB-HD - AVC - AAC-GM




General
Format                      : MPEG-4
Format profile              : Base Media / Version 2
Codec ID                    : mp42 (isom/mp42)
File size                   : 967 MiB
Duration                    : 2 h 24 min
Overall bit rate mode       : Variable
Overall bit rate            : 938 kb/s
Encoded date                : UTC 2018-07-04 17:01:54
Tagged date                 : UTC 2018-07-04 17:01:54
gsst                        : 0
gstd                        : 8648295

Video
ID                          : 1
Format                      : AVC
Format/Info                 : Advanced Video Codec
Format profile              : Main@L3.1
Format settings, CABAC      : Yes
Format settings, RefFrames  : 3 frames
Codec ID                    : avc1
Codec ID/Info               : Advanced Video Coding
Duration                    : 2 h 24 min
Bit rate                    : 809 kb/s
Width                       : 1 280 pixels
Height                      : 720 pixels
Display aspect ratio        : 16:9
Frame rate mode             : Constant
Frame rate                  : 25.000 FPS
Color space                 : YUV
Chroma subsampling          : 4:2:0
Bit depth                   : 8 bits
Scan type                   : Progressive
Bits/(Pixel*Frame)          : 0.035
Stream size                 : 834 MiB (86%)
Title                       : ISO Media file produced by Google Inc. Created on: 07/04/2018.
Encoded date                : UTC 2018-07-04 17:01:54
Tagged date                 : UTC 2018-07-04 17:01:54
Color range                 : Limited
Color primaries             : BT.709
Transfer characteristics    : BT.709
Matrix coefficients         : BT.709

Audio
ID                          : 2
Format                      : AAC
Format/Info                 : Advanced Audio Codec
Format profile              : LC
Codec ID                    : 40
Duration                    : 2 h 24 min
Bit rate mode               : Variable
Bit rate                    : 126 kb/s
Channel(s)                  : 2 channels
Channel positions           : Front: L R
Sampling rate               : 44.1 kHz
Frame rate                  : 43.066 FPS (1024 SPF)
Compression mode            : Lossy
Stream size                 : 129 MiB (13%)
Title                       : ISO Media file produced by Google Inc. Created on: 07/04/2018.
Language                    : English
Encoded date                : UTC 2018-07-04 17:01:54
Tagged date                 : UTC 2018-07-04 17:01:54


Dashing Detective (Thupparivaalan) (2018) Hindi OrG - 720p - WEB-HD - AVC - AAC-GMDashing Detective (Thupparivaalan) (2018) Hindi OrG - 720p - WEB-HD - AVC - AAC-GMDashing Detective (Thupparivaalan) (2018) Hindi OrG - 720p - WEB-HD - AVC - AAC-GMDashing Detective (Thupparivaalan) (2018) Hindi OrG - 720p - WEB-HD - AVC - AAC-GM

SINGLE DIRECT FAST LINKS
http://www.heroupload.us/daab5a8a89c9b61c/Dashing.Detective.Thupparivaalan.2018.Hindi.Org.WEB-HD.720p.AVC.AAC-GM.mp4


http://filefloater.com/1JH7/Dashing.Detective.Thupparivaalan.2018.Hindi.Org.WEB-HD.720p.AVC.AAC-GM.mp4




Buy Premium From My Links & Support Me

Add a comment

Name:* E-Mail:*
Bold Italic Underline Strike | Align left Center Align right | Insert smilies Insert link URLInsert protected URL Select color | Add Hidden Text Insert Quote Convert selected text from selection to Cyrillic (Russian) alphabet Insert spoiler
Enter the code below: *