Rss
Calendar
«    August 2018    »
MonTueWedThuFriSatSun
 12345
6789101112
13141516171819
20212223242526
2728293031 
Friends of the site
» » Paisa Vasool (2018) Hindi - 720p - WEB-HD - AVC - AAC-GM Exclusive
  • Author: wroser
  • |
  • Comments: 0
  • |
  • Views: 16
Paisa Vasool (2018) Hindi - 720p - WEB-HD - AVC - AAC-GM Exclusive





General
Complete name               : E:\Download C 1\Paisa.Vasool.2018.Hindi.720p.WEB-HD.AVC.AAC-GM.mp4
Format                      : MPEG-4
Format profile              : Base Media / Version 2
Codec ID                    : mp42 (isom/mp42)
File size                   : 1.08 GiB
Duration                    : 1 h 55 min
Overall bit rate mode       : Variable
Overall bit rate            : 1 345 kb/s
Encoded date                : UTC 2018-08-11 10:00:34
Tagged date                 : UTC 2018-08-11 10:00:34
gsst                        : 0
gstd                        : 6920428

Video
ID                          : 1
Format                      : AVC
Format/Info                 : Advanced Video Codec
Format profile              : Main@L3.1
Format settings, CABAC      : Yes
Format settings, RefFrames  : 3 frames
Codec ID                    : avc1
Codec ID/Info               : Advanced Video Coding
Duration                    : 1 h 55 min
Bit rate                    : 1 216 kb/s
Width                       : 1 280 pixels
Height                      : 720 pixels
Display aspect ratio        : 16:9
Frame rate mode             : Constant
Frame rate                  : 25.000 FPS
Color space                 : YUV
Chroma subsampling          : 4:2:0
Bit depth                   : 8 bits
Scan type                   : Progressive
Bits/(Pixel*Frame)          : 0.053
Stream size                 : 1 003 MiB (90%)
Title                       : ISO Media file produced by Google Inc. Created on: 08/11/2018.
Encoded date                : UTC 2018-08-11 10:00:34
Tagged date                 : UTC 2018-08-11 10:00:34
Color range                 : Limited
Color primaries             : BT.709
Transfer characteristics    : BT.709
Matrix coefficients         : BT.709

Audio
ID                          : 2
Format                      : AAC
Format/Info                 : Advanced Audio Codec
Format profile              : LC
Codec ID                    : 40
Duration                    : 1 h 55 min
Source duration             : 1 h 55 min
Bit rate mode               : Variable
Bit rate                    : 126 kb/s
Channel(s)                  : 2 channels
Channel positions           : Front: L R
Sampling rate               : 44.1 kHz
Frame rate                  : 43.066 FPS (1024 SPF)
Compression mode            : Lossy
Stream size                 : 104 MiB (9%)
Source stream size          : 104 MiB (9%)
Title                       : ISO Media file produced by Google Inc. Created on: 08/11/2018.
Language                    : English
Encoded date                : UTC 2018-08-11 10:00:34
Tagged date                 : UTC 2018-08-11 10:00:34



Paisa Vasool (2018) Hindi - 720p - WEB-HD - AVC - AAC-GM Exclusive
Paisa Vasool (2018) Hindi - 720p - WEB-HD - AVC - AAC-GM Exclusive
Paisa Vasool (2018) Hindi - 720p - WEB-HD - AVC - AAC-GM Exclusive
Paisa Vasool (2018) Hindi - 720p - WEB-HD - AVC - AAC-GM Exclusive
Paisa Vasool (2018) Hindi - 720p - WEB-HD - AVC - AAC-GM Exclusive
Paisa Vasool (2018) Hindi - 720p - WEB-HD - AVC - AAC-GM Exclusive
Paisa Vasool (2018) Hindi - 720p - WEB-HD - AVC - AAC-GM Exclusive

SINGLE DIRECT FAST LINKS


http://www.heroupload.us/8537e730ded658e9/Paisa.Vasool.2018.Hindi.720p.WEB-HD.AVC.AAC-GM.mp4



http://filefloater.com/Uc9/Paisa.Vasool.2018.Hindi.720p.WEB-HD.AVC.AAC-GM.mp4


Buy Premium From My Links & Support Me

Add a comment

Name:* E-Mail:*
Bold Italic Underline Strike | Align left Center Align right | Insert smilies Insert link URLInsert protected URL Select color | Add Hidden Text Insert Quote Convert selected text from selection to Cyrillic (Russian) alphabet Insert spoiler
Enter the code below: *