Rss
Calendar
«    October 2018    »
MonTueWedThuFriSatSun
1234567
891011121314
15161718192021
22232425262728
293031 
Friends of the site
» » Dhadak (2018) 720p - HDRip - AVC - AAC-BollywoodA2z
  • Author: wroser
  • |
  • Comments: 0
  • |
  • Views: 21
Dhadak (2018) 720p - HDRip - AVC - AAC-BollywoodA2z



Format profile              : Base Media
Codec ID                    : isom (isom/iso2/avc1/mp41)
File size                   : 1.59 GiB
Duration                    : 2 h 17 min
Overall bit rate            : 1 661 kb/s
Writing application         : Lavf58.12.100

Video
ID                          : 1
Format                      : AVC
Format/Info                 : Advanced Video Codec
Format profile              : High@L3.1
Format settings, CABAC      : Yes
Format settings, RefFrames  : 4 frames
Codec ID                    : avc1
Codec ID/Info               : Advanced Video Coding
Duration                    : 2 h 17 min
Bit rate                    : 1 532 kb/s
Width                       : 1 092 pixels
Height                      : 614 pixels
Display aspect ratio        : 16:9
Frame rate mode             : Constant
Frame rate                  : 25.000 FPS
Color space                 : YUV
Chroma subsampling          : 4:2:0
Bit depth                   : 8 bits
Scan type                   : Progressive
Bits/(Pixel*Frame)          : 0.091
Stream size                 : 1.47 GiB (92%)
Writing library             : x264 core 148 r2643 5c65704
Encoding settings           : cabac=1 / ref=1 / deblock=1:0:0 / analyse=0x3:0x3 / me=dia / subme=1 / psy=1 / psy_rd=1.00:0.00 / mixed_ref=0 / me_range=16 / chroma_me=1 / trellis=0 / 8x8dct=1 / cqm=0 / deadzone=21,11 / fast_pskip=1 / chroma_qp_offset=0 / threads=12 / lookahead_threads=2 / sliced_threads=0 / nr=0 / decimate=1 / interlaced=0 / bluray_compat=0 / constrained_intra=0 / bframes=3 / b_pyramid=2 / b_adapt=1 / b_bias=0 / direct=1 / weightb=1 / open_gop=0 / weightp=1 / keyint=250 / keyint_min=25 / scenecut=40 / intra_refresh=0 / rc=abr / mbtree=0 / bitrate=1532 / ratetol=1.0 / qcomp=0.60 / qpmin=0 / qpmax=69 / qpstep=4 / ip_ratio=1.40 / pb_ratio=1.30 / aq=1:1.00

Audio
ID                          : 2
Format                      : AAC
Format/Info                 : Advanced Audio Codec
Format profile              : LC
Codec ID                    : 40
Duration                    : 2 h 17 min
Bit rate mode               : Constant
Bit rate                    : 128 kb/s
Channel(s)                  : 2 channels
Channel(s)_Original         : 1 channel
Channel positions           : Front: C
Sampling rate               : 44.1 kHz
Frame rate                  : 43.066 FPS (1024 SPF)
Compression mode            : Lossy
Stream size                 : 126 MiB (8%)
Title                       : Track1
Default                     : Yes
Alternate group             : 1




Dhadak (2018) 720p - HDRip - AVC - AAC-BollywoodA2zDhadak (2018) 720p - HDRip - AVC - AAC-BollywoodA2zDhadak (2018) 720p - HDRip - AVC - AAC-BollywoodA2zDhadak (2018) 720p - HDRip - AVC - AAC-BollywoodA2zDhadak (2018) 720p - HDRip - AVC - AAC-BollywoodA2zDhadak (2018) 720p - HDRip - AVC - AAC-BollywoodA2zDhadak (2018) 720p - HDRip - AVC - AAC-BollywoodA2z

SINGLE DIRECT FAST LINKS

http://www.heroupload.us/40adcd4428d9caa0/Dhadak.2018.720p.WEB-DL.AVC-BollywoodA2z.mp4



http://filefloater.com/310D/Dhadak.2018.720p.WEB-DL.AVC-BollywoodA2z.mp4





Buy Premium From My Links & Support Me

Add a comment

Name:* E-Mail:*
Bold Italic Underline Strike | Align left Center Align right | Insert smilies Insert link URLInsert protected URL Select color | Add Hidden Text Insert Quote Convert selected text from selection to Cyrillic (Russian) alphabet Insert spoiler
Enter the code below: *