Rss
Calendar
«    October 2018    »
MonTueWedThuFriSatSun
1234567
891011121314
15161718192021
22232425262728
293031 
Friends of the site
» » Zee cine Awards (2018) 1CDRip - SDTV - x264 - AAC-Team Jio Exclusive
  • Author: wroser
  • |
  • Comments: 0
  • |
  • Views: 99
Zee cine Awards (2018) 1CDRip - SDTV - x264 - AAC-Team Jio Exclusive





Format                      : MPEG-4
Format profile              : Base Media
Codec ID                    : isom (isom/iso2/avc1/mp41)
File size                   : 722 MiB
Duration                    : 2 h 54 min
Overall bit rate mode       : Variable
Overall bit rate            : 577 kb/s
Writing application         : Lavf56.40.101

Video
ID                          : 1
Format                      : AVC
Format/Info                 : Advanced Video Codec
Format profile              : Main@L3
Format settings             : CABAC / 2 Ref Frames
Format settings, CABAC      : Yes
Format settings, ReFrames   : 2 frames
Codec ID                    : avc1
Codec ID/Info               : Advanced Video Coding
Duration                    : 2 h 54 min
Bit rate mode               : Variable
Bit rate                    : 510 kb/s
Maximum bit rate            : 563 kb/s
Width                       : 640 pixels
Height                      : 360 pixels
Display aspect ratio        : 16:9
Frame rate mode             : Constant
Frame rate                  : 25.000 FPS
Color space                 : YUV
Chroma subsampling          : 4:2:0
Bit depth                   : 8 bits
Scan type                   : Progressive
Bits/(Pixel*Frame)          : 0.088
Stream size                 : 638 MiB (88%)

Audio
ID                          : 2
Format                      : AAC
Format/Info                 : Advanced Audio Codec
Format profile              : LC
Codec ID                    : mp4a-40-2
Duration                    : 2 h 54 min
Bit rate mode               : Constant
Bit rate                    : 61.4 kb/s
Channel(s)                  : 2 channels
Channel positions           : Front: L R
Sampling rate               : 48.0 kHz
Frame rate                  : 46.875 FPS (1024 SPF)
Compression mode            : Lossy
Stream size                 : 76.8 MiB (11%)
Default                     : Yes
Alternate group             : 1




Zee cine Awards (2018) 1CDRip - SDTV - x264 - AAC-Team Jio Exclusive
Zee cine Awards (2018) 1CDRip - SDTV - x264 - AAC-Team Jio Exclusive
Zee cine Awards (2018) 1CDRip - SDTV - x264 - AAC-Team Jio Exclusive
Zee cine Awards (2018) 1CDRip - SDTV - x264 - AAC-Team Jio Exclusive
Zee cine Awards (2018) 1CDRip - SDTV - x264 - AAC-Team Jio Exclusive
Zee cine Awards (2018) 1CDRip - SDTV - x264 - AAC-Team Jio Exclusive
Zee cine Awards (2018) 1CDRip - SDTV - x264 - AAC-Team Jio Exclusive
Zee cine Awards (2018) 1CDRip - SDTV - x264 - AAC-Team Jio Exclusive

SINGLE DIRECT FAST LINKS


https://www.heroupload.com/b4f7916bfa3df55f/Zee.cine.Awards.2018.360p.SDTV.AAC.2.0-Team.Jio.Exclusive.mp4



http://filefloater.com/9ji/Zee.cine.Awards.2018.360p.SDTV.AAC.2.0-Team.Jio.Exclusive.mp4


Add a comment

Name:* E-Mail:*
Bold Italic Underline Strike | Align left Center Align right | Insert smilies Insert link URLInsert protected URL Select color | Add Hidden Text Insert Quote Convert selected text from selection to Cyrillic (Russian) alphabet Insert spoiler
Enter the code below: *