Rss
Calendar
«    October 2018    »
MonTueWedThuFriSatSun
1234567
891011121314
15161718192021
22232425262728
293031 
Friends of the site
» » Zee cine Awards (2018) 720p - HDTV - x264 - AAC-Team Jio Exclusive
  • Author: wroser
  • |
  • Comments: 1
  • |
  • Views: 315
Zee cine Awards (2018) 720p - HDTV - x264 - AAC-Team Jio Exclusive





Format                      : MPEG-4
Format profile              : Base Media
Codec ID                    : isom (isom/iso2/avc1/mp41)
File size                   : 5.71 GiB
Duration                    : 3 h 16 min
Overall bit rate            : 4 161 kb/s
Writing application         : Lavf56.36.100

Video
ID                          : 1
Format                      : AVC
Format/Info                 : Advanced Video Codec
Format profile              : Baseline@L1.3
Format settings             : 2 Ref Frames
Format settings, CABAC      : No
Format settings, ReFrames   : 2 frames
Codec ID                    : avc1
Codec ID/Info               : Advanced Video Coding
Duration                    : 3 h 16 min
Bit rate                    : 4 000 kb/s
Width                       : 1 280 pixels
Height                      : 720 pixels
Display aspect ratio        : 16:9
Frame rate mode             : Variable
Frame rate                  : 60.000 FPS
Minimum frame rate          : 18.732 FPS
Maximum frame rate          : 60.000 FPS
Color space                 : YUV
Chroma subsampling          : 4:2:0
Bit depth                   : 8 bits
Scan type                   : Progressive
Bits/(Pixel*Frame)          : 0.072
Stream size                 : 5.51 GiB (97%)


Audio
ID                          : 2
Format                      : AAC
Format/Info                 : Advanced Audio Codec
Format profile              : LC
Codec ID                    : mp4a-40-2
Duration                    : 3 h 16 min
Bit rate mode               : Constant
Bit rate                    : 132 kb/s
Channel(s)                  : 2 channels
Channel(s)_Original         : 6 channels
Channel positions           : Front: L C R, Side: L R, LFE
Sampling rate               : 48.0 kHz
Frame rate                  : 46.875 FPS (1024 SPF)
Compression mode            : Lossy
Stream size                 : 183 MiB (3%)
Default                     : Yes
Alternate group             : 1


Zee cine Awards (2018) 720p - HDTV - x264 - AAC-Team Jio ExclusiveZee cine Awards (2018) 720p - HDTV - x264 - AAC-Team Jio ExclusiveZee cine Awards (2018) 720p - HDTV - x264 - AAC-Team Jio ExclusiveZee cine Awards (2018) 720p - HDTV - x264 - AAC-Team Jio ExclusiveZee cine Awards (2018) 720p - HDTV - x264 - AAC-Team Jio ExclusiveZee cine Awards (2018) 720p - HDTV - x264 - AAC-Team Jio ExclusiveZee cine Awards (2018) 720p - HDTV - x264 - AAC-Team Jio ExclusiveZee cine Awards (2018) 720p - HDTV - x264 - AAC-Team Jio ExclusiveZee cine Awards (2018) 720p - HDTV - x264 - AAC-Team Jio ExclusiveZee cine Awards (2018) 720p - HDTV - x264 - AAC-Team Jio Exclusive

SINGLE DIRECT FAST LINKS

https://www.heroupload.com/44e0209e582e905f/Zee.cine.Awards.2018.720p.HDTV.AAC.2.0-Team.Jio.Exclusive.mp4


1GB LINKS


https://www.heroupload.com/13ca40a55757d46b/Zee.cine.Awards.2018.720p.HDTV.AAC.2.0-Team.Jio.Exclusive.part1.rar
https://www.heroupload.com/2db468780dbb54c2/Zee.cine.Awards.2018.720p.HDTV.AAC.2.0-Team.Jio.Exclusive.part2.rar
https://www.heroupload.com/8e0a9f49d2589067/Zee.cine.Awards.2018.720p.HDTV.AAC.2.0-Team.Jio.Exclusive.part3.rar
https://www.heroupload.com/df0540041b84992c/Zee.cine.Awards.2018.720p.HDTV.AAC.2.0-Team.Jio.Exclusive.part4.rar
https://www.heroupload.com/6d1e98dbb70762f5/Zee.cine.Awards.2018.720p.HDTV.AAC.2.0-Team.Jio.Exclusive.part5.rar
https://www.heroupload.com/621ff75b10e65123/Zee.cine.Awards.2018.720p.HDTV.AAC.2.0-Team.Jio.Exclusive.part6.rar



http://filefloater.com/9jj/Zee.cine.Awards.2018.720p.HDTV.AAC.2.0-Team.Jio.Exclusive.part1.rar
http://filefloater.com/9jk/Zee.cine.Awards.2018.720p.HDTV.AAC.2.0-Team.Jio.Exclusive.part2.rar
http://filefloater.com/9jl/Zee.cine.Awards.2018.720p.HDTV.AAC.2.0-Team.Jio.Exclusive.part3.rar
http://filefloater.com/9jm/Zee.cine.Awards.2018.720p.HDTV.AAC.2.0-Team.Jio.Exclusive.part4.rar
http://filefloater.com/9jn/Zee.cine.Awards.2018.720p.HDTV.AAC.2.0-Team.Jio.Exclusive.part5.rar
http://filefloater.com/9jo/Zee.cine.Awards.2018.720p.HDTV.AAC.2.0-Team.Jio.Exclusive.part6.rar


  • 1
Это всего лишь условность, не более

---
Братва про нас! бесплатно малолетки порно, бесплатный просмотр порно или сайт порно ком картинки порно бесплатно

--------------------

Add a comment

Name:* E-Mail:*
Bold Italic Underline Strike | Align left Center Align right | Insert smilies Insert link URLInsert protected URL Select color | Add Hidden Text Insert Quote Convert selected text from selection to Cyrillic (Russian) alphabet Insert spoiler
Enter the code below: *