Rss
Calendar
«    June 2018    »
MonTueWedThuFriSatSun
 123
45678910
11121314151617
18192021222324
252627282930 
Friends of the site
» » Visiri (2018) Tamil - 720p - HDRip - x264 - DD5.1 - MTR
  • Author: wroser
  • |
  • Comments: 0
  • |
  • Views: 63
Visiri (2018) Tamil - 720p - HDRip - x264 - DD5.1 - MTR





General
Format                      : Matroska
Format version              : Version 4 / Version 2
File size                   : 1.46 GiB
Duration                    : 1 h 45 min
Overall bit rate            : 1 975 kb/s
Encoded date                : UTC 2018-05-26 04:59:41
Writing application         : mkvmerge v20.0.0 ('I Am The Sun') 64-bit
Writing library             : libebml v1.3.5 + libmatroska v1.4.8

Video
ID                          : 1
Format                      : AVC
Format/Info                 : Advanced Video Codec
Format profile              : High@L4
Format settings, CABAC      : Yes
Format settings, RefFrames  : 12 frames
Codec ID                    : V_MPEG4/ISO/AVC
Duration                    : 1 h 45 min
Bit rate                    : 1 829 kb/s
Width                       : 1 280 pixels
Height                      : 544 pixels
Display aspect ratio        : 2.35:1
Frame rate mode             : Constant
Frame rate                  : 25.000 FPS
Color space                 : YUV
Chroma subsampling          : 4:2:0
Bit depth                   : 8 bits
Scan type                   : Progressive
Bits/(Pixel*Frame)          : 0.105
Stream size                 : 1.36 GiB (93%)
Writing library             : x264 core 155 r2893 b00bcaf
Encoding settings           : cabac=1 / ref=12 / deblock=1:0:0 / analyse=0x3:0x133 / me=umh / subme=10 / psy=1 / psy_rd=1.00:0.00 / mixed_ref=1 / me_range=24 / chroma_me=1 / trellis=2 / 8x8dct=1 / cqm=0 / deadzone=21,11 / fast_pskip=1 / chroma_qp_offset=-2 / threads=12 / lookahead_threads=2 / sliced_threads=0 / nr=0 / decimate=1 / interlaced=0 / bluray_compat=0 / constrained_intra=0 / bframes=8 / b_pyramid=2 / b_adapt=2 / b_bias=0 / direct=3 / weightb=1 / open_gop=0 / weightp=2 / keyint=250 / keyint_min=25 / scenecut=40 / intra_refresh=0 / rc_lookahead=60 / rc=abr / mbtree=1 / bitrate=1829 / ratetol=1.0 / qcomp=0.60 / qpmin=0 / qpmax=69 / qpstep=4 / vbv_maxrate=25000 / vbv_bufsize=31250 / nal_hrd=none / filler=0 / ip_ratio=1.40 / aq=1:1.00
Language                    : Tamil
Default                     : Yes
Forced                      : No
Color range                 : Limited
Color primaries             : BT.709
Transfer characteristics    : BT.709
Matrix coefficients         : BT.709

Audio
ID                          : 2
Format                      : AAC
Format/Info                 : Advanced Audio Codec
Format profile              : HE-AAC / LC
Codec ID                    : A_AAC
Duration                    : 1 h 45 min
Bit rate                    : 127 kb/s
Channel(s)                  : 6 channels
Channel(s)_Original         : 17 channels
Channel positions           : Front: 15, Side: C, Back: C
Sampling rate               : 44.1 kHz / 22.05 kHz
Frame rate                  : 21.533 FPS (1024 SPF)
Compression mode            : Lossy
Delay relative to video     : -23 ms
Stream size                 : 95.8 MiB (6%)
Language                    : Tamil
Default                     : Yes
Forced                      : No



Visiri (2018) Tamil - 720p - HDRip - x264 - DD5.1 - MTRVisiri (2018) Tamil - 720p - HDRip - x264 - DD5.1 - MTRVisiri (2018) Tamil - 720p - HDRip - x264 - DD5.1 - MTRVisiri (2018) Tamil - 720p - HDRip - x264 - DD5.1 - MTRVisiri (2018) Tamil - 720p - HDRip - x264 - DD5.1 - MTRVisiri (2018) Tamil - 720p - HDRip - x264 - DD5.1 - MTR

SINGLE DIRECT FAST LINKS

http://www.heroupload.us/ef7866322841f1f2/Visiri.2018.720p.HDRip.x264.5.1.Tamil-MTR.mkv



http://filefloater.com/Tev/Visiri.2018.720p.HDRip.x264.5.1.Tamil-MTR.mkv




Add a comment

Name:* E-Mail:*
Bold Italic Underline Strike | Align left Center Align right | Insert smilies Insert link URLInsert protected URL Select color | Add Hidden Text Insert Quote Convert selected text from selection to Cyrillic (Russian) alphabet Insert spoiler
Enter the code below: *