Rss
Calendar
«    June 2018    »
MonTueWedThuFriSatSun
 123
45678910
11121314151617
18192021222324
252627282930 
Friends of the site
» » Iruttu Araiyil Murattu Kuthu (2018) Ultra HD 4K - Untouched - AVC - Dolby ® 5.1-MTR
  • Author: wroser
  • |
  • Comments: 0
  • |
  • Views: 57
Iruttu Araiyil Murattu Kuthu (2018) Ultra HD 4K - Untouched - AVC - Dolby ® 5.1-MTR





General
Format                      : MPEG-4
Codec ID                    : M4V  (isom/avc1/mp42)
File size                   : 4.61 GiB
Duration                    : 1 h 56 min
Overall bit rate mode       : Variable
Overall bit rate            : 5 647 kb/s
Encoded date                : UTC 2018-06-01 14:01:39
Tagged date                 : UTC 2018-06-01 14:01:39

Video
ID                          : 1
Format                      : AVC
Format/Info                 : Advanced Video Codec
Format profile              : Main@L5.1
Format settings, CABAC      : Yes
Format settings, RefFrames  : 3 frames
Format settings, GOP        : M=3, N=90
Codec ID                    : avc1
Codec ID/Info               : Advanced Video Coding
Duration                    : 1 h 56 min
Bit rate mode               : Constant
Bit rate                    : 5 000 kb/s
Maximum bit rate            : 13.6 Mb/s
Width                       : 3 840 pixels
Height                      : 2 160 pixels
Display aspect ratio        : 16:9
Frame rate mode             : Constant
Frame rate                  : 24.000 FPS
Color space                 : YUV
Chroma subsampling          : 4:2:0
Bit depth                   : 8 bits
Scan type                   : Progressive
Bits/(Pixel*Frame)          : 0.025
Stream size                 : 4.08 GiB (89%)
Encoded date                : UTC 2018-06-01 14:01:39
Tagged date                 : UTC 2018-06-01 14:01:39
Color range                 : Limited
Color primaries             : BT.709
Transfer characteristics    : BT.709
Matrix coefficients         : BT.709

Audio #1
ID                          : 2
Format                      : AAC
Format/Info                 : Advanced Audio Codec
Format profile              : LC
Codec ID                    : 40
Duration                    : 1 h 56 min
Bit rate mode               : Variable
Bit rate                    : 128 kb/s
Maximum bit rate            : 133 kb/s
Channel(s)                  : 2 channels
Channel positions           : Front: L R
Sampling rate               : 48.0 kHz
Frame rate                  : 46.875 FPS (1024 SPF)
Compression mode            : Lossy
Stream size                 : 105 MiB (2%)
Language                    : English
Encoded date                : UTC 2018-06-01 14:01:39
Tagged date                 : UTC 2018-06-01 14:01:39

Audio #2
ID                          : 3
Format                      : AC-3
Format/Info                 : Audio Coding 3
Format settings, Endianness : Big
Codec ID                    : ac-3
Duration                    : 1 h 56 min
Bit rate mode               : Constant
Bit rate                    : 512 kb/s
Channel(s)                  : 6 channels
Channel positions           : Front: L C R, Side: L R, LFE
Sampling rate               : 48.0 kHz
Frame rate                  : 31.250 FPS (1536 SPF)
Bit depth                   : 16 bits
Compression mode            : Lossy
Stream size                 : 428 MiB (9%)
Language                    : English
Service kind                : Complete Main
Encoded date                : UTC 2018-06-01 14:01:39
Tagged date                 : UTC 2018-06-01 14:01:39



Iruttu Araiyil Murattu Kuthu (2018) Ultra HD 4K - Untouched - AVC - Dolby ® 5.1-MTRIruttu Araiyil Murattu Kuthu (2018) Ultra HD 4K - Untouched - AVC - Dolby ® 5.1-MTRIruttu Araiyil Murattu Kuthu (2018) Ultra HD 4K - Untouched - AVC - Dolby ® 5.1-MTRIruttu Araiyil Murattu Kuthu (2018) Ultra HD 4K - Untouched - AVC - Dolby ® 5.1-MTR


SINGLE DIRECT FAST LINKS

http://www.heroupload.us/a12d3b5aba437d98/Iruttu.Araiyil.Murattu.Kuthu.2018.4K.Untouched.UHD.MP4.ESubs.Tamil-MTR.mp4


http://filefloater.com/Tiz/Iruttu.Araiyil.Murattu.Kuthu.2018.4K.Untouched.UHD.MP4.ESubs.Tamil-MTR.mp4

1GB LINKS

http://www.heroupload.us/96b57ed0fafa3ed1/Iruttu.Araiyil.Murattu.Kuthu.2018.4K.Untouched.UHD.MP4.ESubs.Tamil-MTR.part1.rar
http://www.heroupload.us/ccab632feef5ec48/Iruttu.Araiyil.Murattu.Kuthu.2018.4K.Untouched.UHD.MP4.ESubs.Tamil-MTR.part2.rar
http://www.heroupload.us/15c149280e4fd080/Iruttu.Araiyil.Murattu.Kuthu.2018.4K.Untouched.UHD.MP4.ESubs.Tamil-MTR.part3.rar
http://www.heroupload.us/829b215886d0e534/Iruttu.Araiyil.Murattu.Kuthu.2018.4K.Untouched.UHD.MP4.ESubs.Tamil-MTR.part4.rar
http://www.heroupload.us/14897842fca74f8f/Iruttu.Araiyil.Murattu.Kuthu.2018.4K.Untouched.UHD.MP4.ESubs.Tamil-MTR.part5.rar



http://filefloater.com/1jju/Iruttu.Araiyil.Murattu.Kuthu.2018.4K.Untouched.UHD.MP4.ESubs.Tamil-MTR.part1.rar
http://filefloater.com/1jjv/Iruttu.Araiyil.Murattu.Kuthu.2018.4K.Untouched.UHD.MP4.ESubs.Tamil-MTR.part2.rar
http://filefloater.com/1jjw/Iruttu.Araiyil.Murattu.Kuthu.2018.4K.Untouched.UHD.MP4.ESubs.Tamil-MTR.part3.rar
http://filefloater.com/1jjx/Iruttu.Araiyil.Murattu.Kuthu.2018.4K.Untouched.UHD.MP4.ESubs.Tamil-MTR.part4.rar
http://filefloater.com/1jjy/Iruttu.Araiyil.Murattu.Kuthu.2018.4K.Untouched.UHD.MP4.ESubs.Tamil-MTR.part5.rar

Add a comment

Name:* E-Mail:*
Bold Italic Underline Strike | Align left Center Align right | Insert smilies Insert link URLInsert protected URL Select color | Add Hidden Text Insert Quote Convert selected text from selection to Cyrillic (Russian) alphabet Insert spoiler
Enter the code below: *