Rss
Calendar
«    June 2018    »
MonTueWedThuFriSatSun
 123
45678910
11121314151617
18192021222324
252627282930 
Friends of the site
» » Kaali (2018) Tamil - 1080p - HDRip - x264 - MP3 - ESubs - MTR
  • Author: wroser
  • |
  • Comments: 0
  • |
  • Views: 15
Kaali (2018) Tamil - 1080p - HDRip - x264 - MP3 - ESubs - MTR





General
Format                      : Matroska
Format version              : Version 4 / Version 2
File size                   : 3.00 GiB
Duration                    : 2 h 8 min
Overall bit rate            : 3 340 kb/s
Encoded date                : UTC 2018-06-06T22:27:26Z
Writing application         : HandBrake 1.0.7 2017040900
Writing library             : Lavf57.7.2

Video
ID                          : 1
Format                      : AVC
Format/Info                 : Advanced Video Codec
Format profile              : Main@L4
Format settings, CABAC      : Yes
Format settings, RefFrames  : 4 frames
Codec ID                    : V_MPEG4/ISO/AVC
Duration                    : 2 h 8 min
Bit rate                    : 3 240 kb/s
Width                       : 1 080 pixels
Height                      : 538 pixels
Display aspect ratio        : 2.007
Frame rate mode             : Constant
Frame rate                  : 24.000 FPS
Color space                 : YUV
Chroma subsampling          : 4:2:0
Bit depth                   : 8 bits
Scan type                   : Progressive
Bits/(Pixel*Frame)          : 0.232
Stream size                 : 2.83 GiB (94%)
Writing library             : x264 core 148 r2708 86b7198
Encoding settings           : cabac=1 / ref=1 / deblock=1:0:0 / analyse=0x1:0x111 / me=hex / subme=2 / psy=1 / psy_rd=1.00:0.00 / mixed_ref=0 / me_range=16 / chroma_me=1 / trellis=0 / 8x8dct=0 / cqm=0 / deadzone=21,11 / fast_pskip=1 / chroma_qp_offset=0 / threads=12 / lookahead_threads=4 / sliced_threads=0 / nr=0 / decimate=1 / interlaced=0 / bluray_compat=0 / constrained_intra=0 / bframes=3 / b_pyramid=2 / b_adapt=1 / b_bias=0 / direct=1 / weightb=1 / open_gop=0 / weightp=1 / keyint=240 / keyint_min=24 / scenecut=40 / intra_refresh=0 / rc_lookahead=10 / rc=abr / mbtree=1 / bitrate=3240 / ratetol=1.0 / qcomp=0.60 / qpmin=0 / qpmax=69 / qpstep=4 / vbv_maxrate=20000 / vbv_bufsize=25000 / nal_hrd=none / filler=0 / ip_ratio=1.40 / aq=1:1.00
Default                     : Yes
Forced                      : No
Color range                 : Limited
Color primaries             : BT.601 NTSC
Transfer characteristics    : BT.709
Matrix coefficients         : BT.601

Audio
ID                          : 2
Format                      : MPEG Audio
Format version              : Version 1
Format profile              : Layer 3
Mode                        : Joint stereo
Mode extension              : MS Stereo
Codec ID                    : A_MPEG/L3
Codec ID/Hint               : MP3
Duration                    : 2 h 8 min
Bit rate mode               : Constant
Bit rate                    : 128 kb/s
Channel(s)                  : 2 channels
Sampling rate               : 48.0 kHz
Compression mode            : Lossy
Delay relative to video     : -23 ms
Stream size                 : 118 MiB (4%)
Title                       : Stereo
Writing library             : LAME3.98
Language                    : English
Default                     : Yes
Forced                      : No



Kaali (2018) Tamil - 1080p - HDRip - x264 - MP3 - ESubs - MTRKaali (2018) Tamil - 1080p - HDRip - x264 - MP3 - ESubs - MTRKaali (2018) Tamil - 1080p - HDRip - x264 - MP3 - ESubs - MTR

SINGLE DIRECT FAST LINKS
http://www.heroupload.us/85705a1f667b2a15/Kaali.2018.1080p.HDRip.x264.ESubs.Tamil-MTR.mkv


http://filefloater.com/Tla/Kaali.2018.1080p.HDRip.x264.ESubs.Tamil-MTR.mkv

700MB LINKS

http://www.heroupload.us/1485ae040b23659d/Kaali.2018.1080p.HDRip.x264.ESubs.Tamil-MTR.part1.rar
http://www.heroupload.us/668ea079dadfa632/Kaali.2018.1080p.HDRip.x264.ESubs.Tamil-MTR.part2.rar
http://www.heroupload.us/b737459dac5449bd/Kaali.2018.1080p.HDRip.x264.ESubs.Tamil-MTR.part3.rar
http://www.heroupload.us/6f546ae6356e911a/Kaali.2018.1080p.HDRip.x264.ESubs.Tamil-MTR.part4.rar
http://www.heroupload.us/dd5858d5f04b28ec/Kaali.2018.1080p.HDRip.x264.ESubs.Tamil-MTR.part5.rar



http://filefloater.com/Tlb/Kaali.2018.1080p.HDRip.x264.ESubs.Tamil-MTR.part1.rar
http://filefloater.com/Tlc/Kaali.2018.1080p.HDRip.x264.ESubs.Tamil-MTR.part2.rar
http://filefloater.com/Tld/Kaali.2018.1080p.HDRip.x264.ESubs.Tamil-MTR.part3.rar
http://filefloater.com/Tle/Kaali.2018.1080p.HDRip.x264.ESubs.Tamil-MTR.part4.rar
http://filefloater.com/Tlf/Kaali.2018.1080p.HDRip.x264.ESubs.Tamil-MTR.part5.rar


Add a comment

Name:* E-Mail:*
Bold Italic Underline Strike | Align left Center Align right | Insert smilies Insert link URLInsert protected URL Select color | Add Hidden Text Insert Quote Convert selected text from selection to Cyrillic (Russian) alphabet Insert spoiler
Enter the code below: *