Rss
Calendar
«    June 2018    »
MonTueWedThuFriSatSun
 123
45678910
11121314151617
18192021222324
252627282930 
Friends of the site
» » Bharat Ane Nenu (2018) Telugu - 700MB - 1CDRip - HDRip - XviD - MP3 - ESub-TMV
  • Author: wroser
  • |
  • Comments: 0
  • |
  • Views: 18
Bharat Ane Nenu (2018) Telugu - 700MB - 1CDRip - HDRip - XviD - MP3 - ESub-TMV







General
Format                      : AVI
Format/Info                 : Audio Video Interleave
File size                   : 728 MiB
Duration                    : 2 h 47 min
Overall bit rate            : 606 kb/s

Video
ID                          : 0
Format                      : MPEG-4 Visual
Format profile              : Advanced Simple@L5
Format settings, BVOP       : 2
Format settings, QPel       : No
Format settings, GMC        : No warppoints
Format settings, Matrix     : Default (H.263)
Codec ID                    : XVID
Codec ID/Hint               : XviD
Duration                    : 2 h 47 min
Bit rate                    : 504 kb/s
Width                       : 608 pixels
Height                      : 256 pixels
Display aspect ratio        : 2.40:1
Frame rate                  : 23.425 FPS
Color space                 : YUV
Chroma subsampling          : 4:2:0
Bit depth                   : 8 bits
Scan type                   : Progressive
Compression mode            : Lossy
Bits/(Pixel*Frame)          : 0.138
Stream size                 : 605 MiB (83%)
Writing library             : XviD 67

Audio
ID                          : 1
Format                      : MPEG Audio
Format version              : Version 1
Format profile              : Layer 3
Mode                        : Joint stereo
Mode extension              : MS Stereo
Codec ID                    : 55
Codec ID/Hint               : MP3
Duration                    : 2 h 47 min
Bit rate mode               : Constant
Bit rate                    : 96.0 kb/s
Channel(s)                  : 2 channels
Sampling rate               : 48.0 kHz
Compression mode            : Lossy
Stream size                 : 115 MiB (16%)
Alignment                   : Aligned on interleaves
Interleave, duration        : 171  ms (4.00 video frames)
Interleave, preload duratio : 216  ms
Title                       : Bharat Ane


Bharat Ane Nenu (2018) Telugu - 700MB - 1CDRip - HDRip - XviD - MP3 - ESub-TMVBharat Ane Nenu (2018) Telugu - 700MB - 1CDRip - HDRip - XviD - MP3 - ESub-TMVBharat Ane Nenu (2018) Telugu - 700MB - 1CDRip - HDRip - XviD - MP3 - ESub-TMVBharat Ane Nenu (2018) Telugu - 700MB - 1CDRip - HDRip - XviD - MP3 - ESub-TMVBharat Ane Nenu (2018) Telugu - 700MB - 1CDRip - HDRip - XviD - MP3 - ESub-TMVBharat Ane Nenu (2018) Telugu - 700MB - 1CDRip - HDRip - XviD - MP3 - ESub-TMVBharat Ane Nenu (2018) Telugu - 700MB - 1CDRip - HDRip - XviD - MP3 - ESub-TMV

SINGLE DIRECT FAST LINKS
http://www.heroupload.us/5beb8e5e515bfaca/Bharat.Ane.Nenu.2018.Telugu.HDRip.XviD.700MB.MP3.ESub-TMV.avi
http://www.heroupload.us/090ac8d6f1b4ff44/Bharat.Ane.Nenu.2018.Telugu.HDRip.XviD.700MB.MP3.ESub-TMV.srt


http://filefloater.com/1jmK/Bharat.Ane.Nenu.2018.Telugu.HDRip.XviD.700MB.MP3.ESub-TMV.avi
http://filefloater.com/1jmL/Bharat.Ane.Nenu.2018.Telugu.HDRip.XviD.700MB.MP3.ESub-TMV.srt




Add a comment

Name:* E-Mail:*
Bold Italic Underline Strike | Align left Center Align right | Insert smilies Insert link URLInsert protected URL Select color | Add Hidden Text Insert Quote Convert selected text from selection to Cyrillic (Russian) alphabet Insert spoiler
Enter the code below: *