Rss
Calendar
«    July 2018    »
MonTueWedThuFriSatSun
 1
2345678
9101112131415
16171819202122
23242526272829
3031 
Friends of the site
» » Achari America Yatra (2018) Telugu - 720p - WEB-HD - AVC - AAC-TMV
  • Author: wroser
  • |
  • Comments: 0
  • |
  • Views: 27
Achari America Yatra (2018) Telugu - 720p - WEB-HD - AVC - AAC-TMV





Format                      : MPEG-4
Format profile              : Base Media / Version 2
Codec ID                    : mp42 (isom/mp42)
File size                   : 1.33 GiB
Duration                    : 2 h 1 min
Overall bit rate mode       : Variable
Overall bit rate            : 1 568 kb/s
Encoded date                : UTC 2018-06-13 12:49:08
Tagged date                 : UTC 2018-06-13 12:49:08
gsst                        : 0
gstd                        : 7296917

Video
ID                          : 1
Format                      : AVC
Format/Info                 : Advanced Video Codec
Format profile              : Main@L3.1
Format settings, CABAC      : Yes
Format settings, RefFrames  : 3 frames
Codec ID                    : avc1
Codec ID/Info               : Advanced Video Coding
Duration                    : 2 h 1 min
Bit rate                    : 1 438 kb/s
Width                       : 1 280 pixels
Height                      : 720 pixels
Display aspect ratio        : 16:9
Frame rate mode             : Variable
Frame rate                  : 23.976 (24000/1001) FPS
Minimum frame rate          : 23.974 FPS
Maximum frame rate          : 23.981 FPS
Color space                 : YUV
Chroma subsampling          : 4:2:0
Bit depth                   : 8 bits
Scan type                   : Progressive
Bits/(Pixel*Frame)          : 0.065
Stream size                 : 1.22 GiB (92%)
Title                       : ISO Media file produced by Google Inc. Created on: 06/13/2018.
Encoded date                : UTC 2018-06-13 12:49:08
Tagged date                 : UTC 2018-06-13 12:49:08
Color range                 : Limited
Color primaries             : BT.709
Transfer characteristics    : BT.709
Matrix coefficients         : BT.709

Audio
ID                          : 2
Format                      : AAC
Format/Info                 : Advanced Audio Codec
Format profile              : LC
Codec ID                    : 40
Duration                    : 2 h 1 min
Bit rate mode               : Variable
Bit rate                    : 126 kb/s
Channel(s)                  : 2 channels
Channel positions           : Front: L R
Sampling rate               : 44.1 kHz
Frame rate                  : 43.066 FPS (1024 SPF)
Compression mode            : Lossy
Stream size                 : 109 MiB (8%)
Title                       : ISO Media file produced by Google Inc. Created on: 06/13/2018.
Language                    : English
Encoded date                : UTC 2018-06-13 12:49:08
Tagged date                 : UTC 2018-06-13 12:49:08



Achari America Yatra (2018) Telugu - 720p - WEB-HD - AVC - AAC-TMVAchari America Yatra (2018) Telugu - 720p - WEB-HD - AVC - AAC-TMVAchari America Yatra (2018) Telugu - 720p - WEB-HD - AVC - AAC-TMVAchari America Yatra (2018) Telugu - 720p - WEB-HD - AVC - AAC-TMVAchari America Yatra (2018) Telugu - 720p - WEB-HD - AVC - AAC-TMVAchari America Yatra (2018) Telugu - 720p - WEB-HD - AVC - AAC-TMVAchari America Yatra (2018) Telugu - 720p - WEB-HD - AVC - AAC-TMVAchari America Yatra (2018) Telugu - 720p - WEB-HD - AVC - AAC-TMV

SINGLE DIRECT FAST LINKS

http://www.heroupload.us/1928c1ac58b533d4/Achari.America.Yatra.2018.Telugu.WEB-HD.720p.AVC.AAC-TMV.mp4



http://filefloater.com/1jrH/Achari.America.Yatra.2018.Telugu.WEB-HD.720p.AVC.AAC-TMV.mp4


Add a comment

Name:* E-Mail:*
Bold Italic Underline Strike | Align left Center Align right | Insert smilies Insert link URLInsert protected URL Select color | Add Hidden Text Insert Quote Convert selected text from selection to Cyrillic (Russian) alphabet Insert spoiler
Enter the code below: *