Rss
Calendar
«    July 2018    »
MonTueWedThuFriSatSun
 1
2345678
9101112131415
16171819202122
23242526272829
3031 
Friends of the site
» » Pantham (2018) Telugu - 1080p - PreDVDRip - x264 - MP3-TMV
  • Author: wroser
  • |
  • Comments: 0
  • |
  • Views: 36
Pantham (2018) Telugu - 1080p - PreDVDRip - x264 - MP3-TMV





General
Format                      : Matroska
Format version              : Version 4 / Version 2
File size                   : 2.27 GiB
Duration                    : 2 h 19 min
Overall bit rate            : 2 342 kb/s
Encoded date                : UTC 2018-07-05 11:59:56
Writing application         : mkvmerge v7.1.0 ('Good Love') 32bit built on Jul 27 2014 12:59:18
Writing library             : libebml v1.3.0 + libmatroska v1.4.1

Video
ID                          : 1
Format                      : AVC
Format/Info                 : Advanced Video Codec
Format profile              : High@L4
Format settings, CABAC      : Yes
Format settings, RefFrames  : 4 frames
Codec ID                    : V_MPEG4/ISO/AVC
Duration                    : 2 h 19 min
Bit rate                    : 2 212 kb/s
Width                       : 1 920 pixels
Height                      : 816 pixels
Display aspect ratio        : 2.35:1
Frame rate mode             : Constant
Frame rate                  : 24.000 FPS
Color space                 : YUV
Chroma subsampling          : 4:2:0
Bit depth                   : 8 bits
Scan type                   : Progressive
Bits/(Pixel*Frame)          : 0.059
Stream size                 : 2.15 GiB (94%)
Writing library             : x264 core 155 r2901 7d0ff22
Encoding settings           : cabac=1 / ref=3 / deblock=1:0:0 / analyse=0x3:0x113 / me=hex / subme=7 / psy=1 / psy_rd=1.00:0.00 / mixed_ref=1 / me_range=16 / chroma_me=1 / trellis=1 / 8x8dct=1 / cqm=0 / deadzone=21,11 / fast_pskip=1 / chroma_qp_offset=-2 / threads=25 / lookahead_threads=4 / sliced_threads=0 / nr=0 / decimate=1 / interlaced=0 / bluray_compat=0 / constrained_intra=0 / bframes=3 / b_pyramid=2 / b_adapt=1 / b_bias=0 / direct=1 / weightb=1 / open_gop=0 / weightp=2 / keyint=240 / keyint_min=24 / scenecut=40 / intra_refresh=0 / rc_lookahead=40 / rc=2pass / mbtree=1 / bitrate=2212 / ratetol=1.0 / qcomp=0.60 / qpmin=0 / qpmax=69 / qpstep=4 / cplxblur=20.0 / qblur=0.5 / ip_ratio=1.40 / aq=1:1.00
Language                    : Telugu
Default                     : Yes
Forced                      : No

Audio
ID                          : 2
Format                      : MPEG Audio
Format version              : Version 1
Format profile              : Layer 3
Mode                        : Joint stereo
Mode extension              : MS Stereo
Codec ID                    : A_MPEG/L3
Codec ID/Hint               : MP3
Duration                    : 2 h 19 min
Bit rate mode               : Constant
Bit rate                    : 128 kb/s
Channel(s)                  : 2 channels
Sampling rate               : 48.0 kHz
Frame rate                  : 41.667 FPS (1152 SPF)
Compression mode            : Lossy
Stream size                 : 127 MiB (5%)
Writing library             : LAME3.98.2
Language                    : Telugu
Default                     : Yes
Forced                      : No


Pantham (2018) Telugu - 1080p - PreDVDRip - x264 - MP3-TMVPantham (2018) Telugu - 1080p - PreDVDRip - x264 - MP3-TMVPantham (2018) Telugu - 1080p - PreDVDRip - x264 - MP3-TMVPantham (2018) Telugu - 1080p - PreDVDRip - x264 - MP3-TMVPantham (2018) Telugu - 1080p - PreDVDRip - x264 - MP3-TMVPantham (2018) Telugu - 1080p - PreDVDRip - x264 - MP3-TMV

SINGLE DIRECT FAST LINKS
http://www.heroupload.us/98954069a488b73a/Pantham.2018.Telugu.1080p.x264-TMV.mkv


http://filefloater.com/1JD1/Pantham.2018.Telugu.1080p.x264-TMV.mkv

700MB LINKS

http://www.heroupload.us/25d598db7d8c4a10/Pantham.2018.Telugu.1080p.x264-TMV.part1.rar
http://www.heroupload.us/a136e8cf0d76d36e/Pantham.2018.Telugu.1080p.x264-TMV.part2.rar
http://www.heroupload.us/74b76b1337c71ce5/Pantham.2018.Telugu.1080p.x264-TMV.part3.rar
http://www.heroupload.us/5b378802cdf4ddb8/Pantham.2018.Telugu.1080p.x264-TMV.part4.rar



http://filefloater.com/1JD2/Pantham.2018.Telugu.1080p.x264-TMV.part1.rar
http://filefloater.com/1JD3/Pantham.2018.Telugu.1080p.x264-TMV.part2.rar
http://filefloater.com/1JD4/Pantham.2018.Telugu.1080p.x264-TMV.part3.rar
http://filefloater.com/1JD5/Pantham.2018.Telugu.1080p.x264-TMV.part4.rar


Buy Premium From My Links & Support Me

Add a comment

Name:* E-Mail:*
Bold Italic Underline Strike | Align left Center Align right | Insert smilies Insert link URLInsert protected URL Select color | Add Hidden Text Insert Quote Convert selected text from selection to Cyrillic (Russian) alphabet Insert spoiler
Enter the code below: *