Rss
Calendar
«    August 2018    »
MonTueWedThuFriSatSun
 12345
6789101112
13141516171819
20212223242526
2728293031 
Friends of the site
» » Yuddham Sharanam (2017) Telugu - 1080p - WEB-HD - AVC - AAC-TMV
  • Author: wroser
  • |
  • Comments: 0
  • |
  • Views: 55
Yuddham Sharanam (2017) Telugu - 1080p - WEB-HD - AVC - AAC-TMV





General
Format                      : MPEG-4
Format profile              : Base Media
Codec ID                    : isom (isom/iso2/avc1/mp41)
File size                   : 2.72 GiB
Duration                    : 2 h 17 min
Overall bit rate mode       : Variable
Overall bit rate            : 2 836 kb/s
Encoded date                : UTC 2017-09-12 10:37:10
Tagged date                 : UTC 2017-09-12 10:37:10

Video
ID                          : 1
Format                      : AVC
Format/Info                 : Advanced Video Codec
Format profile              : High@L4
Format settings, CABAC      : Yes
Format settings, RefFrames  : 2 frames
Codec ID                    : avc1
Codec ID/Info               : Advanced Video Coding
Duration                    : 2 h 17 min
Bit rate                    : 2 707 kb/s
Width                       : 1 920 pixels
Height                      : 1 080 pixels
Display aspect ratio        : 16:9
Frame rate mode             : Constant
Frame rate                  : 24.000 FPS
Color space                 : YUV
Chroma subsampling          : 4:2:0
Bit depth                   : 8 bits
Scan type                   : Progressive
Bits/(Pixel*Frame)          : 0.054
Stream size                 : 2.59 GiB (95%)
Encoded date                : UTC 2017-09-12 10:37:10
Tagged date                 : UTC 2017-09-12 10:37:10
Color range                 : Limited
Color primaries             : BT.709
Transfer characteristics    : BT.709
Matrix coefficients         : BT.709

Audio
ID                          : 2
Format                      : AAC
Format/Info                 : Advanced Audio Codec
Format profile              : LC
Codec ID                    : 40
Duration                    : 2 h 17 min
Bit rate mode               : Variable
Bit rate                    : 126 kb/s
Channel(s)                  : 2 channels
Channel positions           : Front: L R
Sampling rate               : 44.1 kHz
Frame rate                  : 43.066 FPS (1024 SPF)
Compression mode            : Lossy
Stream size                 : 123 MiB (4%)
Default                     : Yes
Alternate group             : 1
Encoded date                : UTC 2017-09-12 11:07:06
Tagged date                 : UTC 2017-09-12 11:07:06


Yuddham Sharanam (2017) Telugu - 1080p - WEB-HD - AVC - AAC-TMVYuddham Sharanam (2017) Telugu - 1080p - WEB-HD - AVC - AAC-TMVYuddham Sharanam (2017) Telugu - 1080p - WEB-HD - AVC - AAC-TMVYuddham Sharanam (2017) Telugu - 1080p - WEB-HD - AVC - AAC-TMVYuddham Sharanam (2017) Telugu - 1080p - WEB-HD - AVC - AAC-TMVYuddham Sharanam (2017) Telugu - 1080p - WEB-HD - AVC - AAC-TMV

SINGLE DIRECT FAST LINKS
http://www.heroupload.us/6ef235895067e599/Yuddham.Sharanam.2017.Telugu.WEB-HD.1080p.AVC.AAC-TMV.mp4


http://filefloater.com/2zJN/Yuddham.Sharanam.2017.Telugu.WEB-HD.1080p.AVC.AAC-TMV.mp4

700MB LINKS


http://www.heroupload.us/28b88d2fb4d5c159/Yuddham.Sharanam.2017.Telugu.WEB-HD.1080p.AVC.AAC-TMV.part1.rar
http://www.heroupload.us/3991976cb6afede2/Yuddham.Sharanam.2017.Telugu.WEB-HD.1080p.AVC.AAC-TMV.part2.rar
http://www.heroupload.us/8af372df75d3e3b1/Yuddham.Sharanam.2017.Telugu.WEB-HD.1080p.AVC.AAC-TMV.part3.rar
http://www.heroupload.us/3816eff6f715c1f2/Yuddham.Sharanam.2017.Telugu.WEB-HD.1080p.AVC.AAC-TMV.part4.rar



http://filefloater.com/1JI0/Yuddham.Sharanam.2017.Telugu.WEB-HD.1080p.AVC.AAC-TMV.part1.rar
http://filefloater.com/1JI1/Yuddham.Sharanam.2017.Telugu.WEB-HD.1080p.AVC.AAC-TMV.part2.rar
http://filefloater.com/1JI2/Yuddham.Sharanam.2017.Telugu.WEB-HD.1080p.AVC.AAC-TMV.part3.rar
http://filefloater.com/1JI3/Yuddham.Sharanam.2017.Telugu.WEB-HD.1080p.AVC.AAC-TMV.part4.rar


Buy Premium From My Links & Support Me

Add a comment

Name:* E-Mail:*
Bold Italic Underline Strike | Align left Center Align right | Insert smilies Insert link URLInsert protected URL Select color | Add Hidden Text Insert Quote Convert selected text from selection to Cyrillic (Russian) alphabet Insert spoiler
Enter the code below: *