Rss
Calendar
«    May 2018    »
MonTueWedThuFriSatSun
 123456
78910111213
14151617181920
21222324252627
28293031 
Friends of the site
» » 334 Va Katha (2018) Telugu - 1080p - WEB-HD - AVC - AAC-TMV
  • Author: wroser
  • |
  • Comments: 0
  • |
  • Views: 13
334 Va Katha (2018) Telugu - 1080p - WEB-HD - AVC - AAC-TMV





General
Format                      : MPEG-4
Format profile              : Base Media
Codec ID                    : isom (isom/iso2/avc1/mp41)
File size                   : 2.22 GiB
Duration                    : 2 h 0 min
Overall bit rate            : 2 638 kb/s
Writing application         : Lavf57.41.100

Video
ID                          : 1
Format                      : AVC
Format/Info                 : Advanced Video Codec
Format profile              : High@L4.1
Format settings, CABAC      : Yes
Format settings, RefFrames  : 4 frames
Codec ID                    : avc1
Codec ID/Info               : Advanced Video Coding
Duration                    : 2 h 0 min
Bit rate                    : 2 506 kb/s
Nominal bit rate            : 3 500 kb/s
Width                       : 1 920 pixels
Height                      : 1 080 pixels
Display aspect ratio        : 16:9
Frame rate mode             : Constant
Frame rate                  : 25.000 FPS
Color space                 : YUV
Chroma subsampling          : 4:2:0
Bit depth                   : 8 bits
Scan type                   : Progressive
Bits/(Pixel*Frame)          : 0.048
Stream size                 : 2.11 GiB (95%)
Writing library             : x264 core 148 r2694 3b70645
Encoding settings           : cabac=1 / ref=3 / deblock=1:0:0 / analyse=0x3:0x113 / me=hex / subme=7 / psy=1 / psy_rd=1.00:0.00 / mixed_ref=1 / me_range=16 / chroma_me=1 / trellis=1 / 8x8dct=1 / cqm=0 / deadzone=21,11 / fast_pskip=1 / chroma_qp_offset=-2 / threads=34 / lookahead_threads=5 / sliced_threads=0 / nr=0 / decimate=1 / interlaced=0 / bluray_compat=0 / constrained_intra=0 / bframes=3 / b_pyramid=2 / b_adapt=1 / b_bias=0 / direct=1 / weightb=1 / open_gop=0 / weightp=2 / keyint=50 / keyint_min=26 / scenecut=0 / intra_refresh=0 / rc_lookahead=40 / rc=cbr / mbtree=1 / bitrate=3500 / ratetol=1.0 / qcomp=0.60 / qpmin=0 / qpmax=69 / qpstep=4 / vbv_maxrate=3500 / vbv_bufsize=3500 / nal_hrd=none / filler=0 / ip_ratio=1.40 / aq=1:1.00
Tagged date                 : UTC 2018-05-16 10:19:23

Audio
ID                          : 2
Format                      : AAC
Format/Info                 : Advanced Audio Codec
Format profile              : LC
Codec ID                    : 40
Duration                    : 2 h 0 min
Source duration             : 2 h 0 min
Bit rate mode               : Constant
Bit rate                    : 128 kb/s
Channel(s)                  : 2 channels
Channel positions           : Front: L R
Sampling rate               : 48.0 kHz
Frame rate                  : 46.875 FPS (1024 SPF)
Compression mode            : Lossy
Stream size                 : 110 MiB (5%)
Source stream size          : 110 MiB (5%)
Language                    : English
Default                     : Yes
Alternate group             : 1
Tagged date                 : UTC 2018-05-16 10:19:23



334 Va Katha (2018) Telugu - 1080p - WEB-HD - AVC - AAC-TMV334 Va Katha (2018) Telugu - 1080p - WEB-HD - AVC - AAC-TMV334 Va Katha (2018) Telugu - 1080p - WEB-HD - AVC - AAC-TMV

SINGLE DIRECT FAST LINKS
http://www.heroupload.us/4ee4ff5bf08d63ea/334.Va.Katha.2018.Telugu.WEB-HD.1080p.AVC.AAC-TMV.mp4


http://filefloater.com/T7i/334.Va.Katha.2018.Telugu.WEB-HD.1080p.AVC.AAC-TMV.mp4

700MB LINKS

http://www.heroupload.us/830ec27e1a1bf997/334.Va.Katha.2018.Telugu.WEB-HD.1080p.AVC.AAC-TMV.part1.rar
http://www.heroupload.us/83fe635beae40a80/334.Va.Katha.2018.Telugu.WEB-HD.1080p.AVC.AAC-TMV.part2.rar
http://www.heroupload.us/503c6edc2c6c072b/334.Va.Katha.2018.Telugu.WEB-HD.1080p.AVC.AAC-TMV.part3.rar
http://www.heroupload.us/2442c7a633af58ab/334.Va.Katha.2018.Telugu.WEB-HD.1080p.AVC.AAC-TMV.part4.rar



http://filefloater.com/T7j/334.Va.Katha.2018.Telugu.WEB-HD.1080p.AVC.AAC-TMV.part1.rar
http://filefloater.com/T7k/334.Va.Katha.2018.Telugu.WEB-HD.1080p.AVC.AAC-TMV.part2.rar
http://filefloater.com/T7l/334.Va.Katha.2018.Telugu.WEB-HD.1080p.AVC.AAC-TMV.part3.rar
http://filefloater.com/T7m/334.Va.Katha.2018.Telugu.WEB-HD.1080p.AVC.AAC-TMV.part4.rar


Add a comment

Name:* E-Mail:*
Bold Italic Underline Strike | Align left Center Align right | Insert smilies Insert link URLInsert protected URL Select color | Add Hidden Text Insert Quote Convert selected text from selection to Cyrillic (Russian) alphabet Insert spoiler
Enter the code below: *