Rss
Calendar
«    May 2018    »
MonTueWedThuFriSatSun
 123456
78910111213
14151617181920
21222324252627
28293031 
Friends of the site
» » Hyderabad Love Story (2018) Telugu - 700MB - 1CDRip - HDRip - XviD - MP3-TMV
  • Author: wroser
  • |
  • Comments: 0
  • |
  • Views: 13
Hyderabad Love Story (2018) Telugu - 700MB - 1CDRip - HDRip - XviD - MP3-TMV







General
Format                      : AVI
Format/Info                 : Audio Video Interleave
File size                   : 709 MiB
Duration                    : 2 h 20 min
Overall bit rate            : 706 kb/s

Video
ID                          : 0
Format                      : MPEG-4 Visual
Format profile              : Advanced Simple@L5
Format settings, BVOP       : 2
Format settings, QPel       : No
Format settings, GMC        : No warppoints
Format settings, Matrix     : Default (H.263)
Codec ID                    : XVID
Codec ID/Hint               : XviD
Duration                    : 2 h 20 min
Bit rate                    : 604 kb/s
Width                       : 608 pixels
Height                      : 256 pixels
Display aspect ratio        : 2.40:1
Frame rate                  : 25.000 FPS
Color space                 : YUV
Chroma subsampling          : 4:2:0
Bit depth                   : 8 bits
Scan type                   : Progressive
Compression mode            : Lossy
Bits/(Pixel*Frame)          : 0.155
Stream size                 : 606 MiB (86%)
Writing library             : XviD 67

Audio
ID                          : 1
Format                      : MPEG Audio
Format version              : Version 1
Format profile              : Layer 3
Mode                        : Joint stereo
Mode extension              : MS Stereo
Codec ID                    : 55
Codec ID/Hint               : MP3
Duration                    : 2 h 20 min
Bit rate mode               : Constant
Bit rate                    : 96.0 kb/s
Channel(s)                  : 2 channels
Sampling rate               : 44.1 kHz
Compression mode            : Lossy
Stream size                 : 96.4 MiB (14%)
Alignment                   : Aligned on interleaves
Interleave, duration        : 160  ms (4.00 video frames)
Interleave, preload duratio : 208  ms
Title                       : Hyderabad Love Story
Writing library             : LAME3.99.5




Hyderabad Love Story (2018) Telugu - 700MB - 1CDRip - HDRip - XviD - MP3-TMVHyderabad Love Story (2018) Telugu - 700MB - 1CDRip - HDRip - XviD - MP3-TMVHyderabad Love Story (2018) Telugu - 700MB - 1CDRip - HDRip - XviD - MP3-TMVHyderabad Love Story (2018) Telugu - 700MB - 1CDRip - HDRip - XviD - MP3-TMVHyderabad Love Story (2018) Telugu - 700MB - 1CDRip - HDRip - XviD - MP3-TMV

SINGLE DIRECT FAST LINKS

http://www.heroupload.us/b4439e99d99a4b50/Hyderabad.Love.Story.2018.Telugu.HDRip.XviD.700MB.MP3-TMV.avi



http://filefloater.com/T7v/Hyderabad.Love.Story.2018.Telugu.HDRip.XviD.700MB.MP3-TMV.avi


Add a comment

Name:* E-Mail:*
Bold Italic Underline Strike | Align left Center Align right | Insert smilies Insert link URLInsert protected URL Select color | Add Hidden Text Insert Quote Convert selected text from selection to Cyrillic (Russian) alphabet Insert spoiler
Enter the code below: *