Rss
Calendar
«    October 2018    »
MonTueWedThuFriSatSun
1234567
891011121314
15161718192021
22232425262728
293031 
Friends of the site
» » Happy Wedding (2018) Telugu - 720p - HDTV - AVC - AAC-TMV
  • Author: wroser
  • |
  • Comments: 7
  • |
  • Views: 116
Happy Wedding (2018) Telugu - 720p - HDTV - AVC - AAC-TMV





Format                      : MPEG-4
Format profile              : Base Media
Codec ID                    : isom (isom/iso2/avc1/mp41)
File size                   : 1.64 GiB
Duration                    : 1 h 54 min
Overall bit rate            : 2 058 kb/s
Writing application         : Lavf58.13.100

Video
ID                          : 1
Format                      : AVC
Format/Info                 : Advanced Video Codec
Format profile              : High@L3.1
Format settings, CABAC      : Yes
Format settings, RefFrames  : 1 frame
Format settings, GOP        : M=1, N=12
Codec ID                    : avc1
Codec ID/Info               : Advanced Video Coding
Duration                    : 1 h 54 min
Bit rate                    : 1 926 kb/s
Width                       : 1 280 pixels
Height                      : 720 pixels
Display aspect ratio        : 1.733
Original display aspect rat : 1.734
Frame rate mode             : Constant
Frame rate                  : 25.000 FPS
Standard                    : Component
Color space                 : YUV
Chroma subsampling          : 4:2:0
Bit depth                   : 8 bits
Scan type                   : Progressive
Bits/(Pixel*Frame)          : 0.084
Stream size                 : 1.54 GiB (94%)
Color range                 : Limited
Color primaries             : BT.709
Transfer characteristics    : BT.709
Matrix coefficients         : BT.709
Menus                       : 0

Audio
ID                          : 2
Format                      : AAC
Format/Info                 : Advanced Audio Codec
Format profile              : LC
Codec ID                    : 40
Duration                    : 1 h 54 min
Bit rate mode               : Constant
Bit rate                    : 128 kb/s
Channel(s)                  : 2 channels
Channel positions           : Front: L R
Sampling rate               : 48.0 kHz
Frame rate                  : 46.875 FPS (1024 SPF)
Compression mode            : Lossy
Stream size                 : 104 MiB (6%)
Default                     : Yes
Alternate group             : 1
Menus                       : 0

Menu



Happy Wedding (2018) Telugu - 720p - HDTV - AVC - AAC-TMVHappy Wedding (2018) Telugu - 720p - HDTV - AVC - AAC-TMVHappy Wedding (2018) Telugu - 720p - HDTV - AVC - AAC-TMVHappy Wedding (2018) Telugu - 720p - HDTV - AVC - AAC-TMVHappy Wedding (2018) Telugu - 720p - HDTV - AVC - AAC-TMVHappy Wedding (2018) Telugu - 720p - HDTV - AVC - AAC-TMVHappy Wedding (2018) Telugu - 720p - HDTV - AVC - AAC-TMVHappy Wedding (2018) Telugu - 720p - HDTV - AVC - AAC-TMVHappy Wedding (2018) Telugu - 720p - HDTV - AVC - AAC-TMV


SINGLE DIRECT FAST LINKS

http://www.heroupload.us/0c1613cd2b602706/Happy.Wedding.2018.Telugu.True.HDTV.720p.UNTOUCHED.AVC.AAC-TMV.mp4



http://filefloater.com/2AF5/Happy.Wedding.2018.Telugu.True.HDTV.720p.UNTOUCHED.AVC.AAC-TMV.mp4


Buy Premium From My Links & Support Me
  • 1
У меня похожая ситуация. Готов помочь.

---
Это — скандал! средства от грибка древесины, средство для от грибка или варанга средство от грибка купить в москве средство грибка дереве

--------------------
  • 2
Просто Блеск

---
Что об этом скажете? амвей средство от грибка, магазин средство от грибка и варанга средство от грибка цена tinedol средство от грибка

--------------------
  • 3
Я присоединяюсь ко всему выше сказанному. Давайте обсудим этот вопрос. Здесь или в PM.

---
Извините за то, что вмешиваюсь… У меня похожая ситуация. Давайте обсудим. Пишите здесь или в PM. чанг шу купить в иваново, чанг шу чай уфа или купить чай чанг шу в воткинске чай чанг шу в красноярске

--------------------
  • 4
Я вам не верю

---
Понял не всё. пурпурный чай инструкция, пурпурный чай для похудения чанг или purplestea.ru чай из эхинацеи пурпурной

--------------------
  • 5
Хорошее дело!

---
тоска препараты усилители потенции, препараты повышающее потенцию и mukunaofficia препараты стимулирующие потенции

--------------------
  • 6
Замечательная идея

---
Я согласен со всем выше сказанным. Давайте обсудим этот вопрос. Здесь или в PM. что такое филайф, филайф в алматы и филайф купить в москве купить филайф астана

--------------------
  • 7
Весьма ценная штука

---
И не говори))))) северодвинск остекление балконов, остекление балконов спб а также остекление балкона казань калькулятор остекление выносных балконов

--------------------

Add a comment

Name:* E-Mail:*
Bold Italic Underline Strike | Align left Center Align right | Insert smilies Insert link URLInsert protected URL Select color | Add Hidden Text Insert Quote Convert selected text from selection to Cyrillic (Russian) alphabet Insert spoiler
Enter the code below: *