Rss
Calendar
«    October 2018    »
MonTueWedThuFriSatSun
1234567
891011121314
15161718192021
22232425262728
293031 
Friends of the site
» » Vishwaroopam 2 (2018) Telugu - 1080p - WEB-HD - AVC - DD5.1 - ESubs TMV
  • Author: wroser
  • |
  • Comments: 0
  • |
  • Views: 76
Vishwaroopam 2 (2018) Telugu - 1080p - WEB-HD - AVC - DD5.1 - ESubs TMV





Format                      : MPEG-4
Format profile              : Base Media
Codec ID                    : isom (isom)
File size                   : 3.07 GiB
Duration                    : 2 h 20 min
Overall bit rate            : 3 121 kb/s
Encoded date                : UTC 2018-09-12 14:08:00
Tagged date                 : UTC 2018-09-12 14:08:00

Video
ID                          : 1
Format                      : AVC
Format/Info                 : Advanced Video Codec
Format profile              : High@L4
Format settings, CABAC      : Yes
Format settings, RefFrames  : 4 frames
Codec ID                    : avc1
Codec ID/Info               : Advanced Video Coding
Duration                    : 2 h 20 min
Bit rate                    : 2 734 kb/s
Maximum bit rate            : 13.6 Mb/s
Width                       : 1 920 pixels
Height                      : 1 080 pixels
Display aspect ratio        : 16:9
Frame rate mode             : Constant
Frame rate                  : 29.970 (30000/1001) FPS
Color space                 : YUV
Chroma subsampling          : 4:2:0
Bit depth                   : 8 bits
Scan type                   : Progressive
Bits/(Pixel*Frame)          : 0.044
Stream size                 : 2.68 GiB (88%)
Writing library             : x264 core 155 r2901 7d0ff22
Encoding settings           : cabac=1 / ref=3 / deblock=1:0:0 / analyse=0x3:0x113 / me=hex / subme=7 / psy=1 / psy_rd=1.00:0.00 / mixed_ref=1 / me_range=16 / chroma_me=1 / trellis=1 / 8x8dct=1 / cqm=0 / deadzone=21,11 / fast_pskip=1 / chroma_qp_offset=-2 / threads=34 / lookahead_threads=5 / sliced_threads=0 / nr=0 / decimate=1 / interlaced=0 / bluray_compat=0 / constrained_intra=0 / bframes=3 / b_pyramid=2 / b_adapt=1 / b_bias=0 / direct=1 / weightb=1 / open_gop=0 / weightp=2 / keyint=300 / keyint_min=29 / scenecut=40 / intra_refresh=0 / rc_lookahead=40 / rc=2pass / mbtree=1 / bitrate=2734 / ratetol=1.0 / qcomp=0.60 / qpmin=0 / qpmax=69 / qpstep=4 / cplxblur=20.0 / qblur=0.5 / ip_ratio=1.40 / aq=1:1.00
Encoded date                : UTC 2018-09-12 13:43:56
Tagged date                 : UTC 2018-09-12 14:08:06

Audio
ID                          : 2
Format                      : AC-3
Format/Info                 : Audio Coding 3
Format settings, Endianness : Big
Codec ID                    : ac-3
Duration                    : 2 h 20 min
Bit rate mode               : Constant
Bit rate                    : 384 kb/s
Maximum bit rate            : 401 kb/s
Channel(s)                  : 6 channels
Channel positions           : Front: L C R, Side: L R, LFE
Sampling rate               : 44.1 kHz
Frame rate                  : 28.711 FPS (1536 SPF)
Bit depth                   : 16 bits
Compression mode            : Lossy
Stream size                 : 386 MiB (12%)
Language                    : Telugu
Service kind                : Complete Main
Encoded date                : UTC 2018-09-12 14:08:04
Tagged date                 : UTC 2018-09-12 14:08:06



Vishwaroopam 2 (2018) Telugu - 1080p - WEB-HD - AVC - DD5.1 - ESubs TMVVishwaroopam 2 (2018) Telugu - 1080p - WEB-HD - AVC - DD5.1 - ESubs TMVVishwaroopam 2 (2018) Telugu - 1080p - WEB-HD - AVC - DD5.1 - ESubs TMVVishwaroopam 2 (2018) Telugu - 1080p - WEB-HD - AVC - DD5.1 - ESubs TMVVishwaroopam 2 (2018) Telugu - 1080p - WEB-HD - AVC - DD5.1 - ESubs TMV

SINGLE DIRECT FAST LINKS
http://www.heroupload.us/6c6932cab19d938c/Vishwaroopam.2.2018.Telugu.Org.Vers.WEB-HD.1080p.AVC.DD5.1.ESub-TMV.mp4


http://filefloater.com/30OH/Vishwaroopam.2.2018.Telugu.Org.Vers.WEB-HD.1080p.AVC.DD5.1.ESub-TMV.mp4

700MB LINKS

http://www.heroupload.us/66c105da2c65f37d/Vishwaroopam.2.2018.Telugu.Org.Vers.WEB-HD.1080p.AVC.DD5.1.ESub-TMV.part1.rar
http://www.heroupload.us/b15a7170781eac31/Vishwaroopam.2.2018.Telugu.Org.Vers.WEB-HD.1080p.AVC.DD5.1.ESub-TMV.part2.rar
http://www.heroupload.us/b7802eb5cf479ff1/Vishwaroopam.2.2018.Telugu.Org.Vers.WEB-HD.1080p.AVC.DD5.1.ESub-TMV.part3.rar
http://www.heroupload.us/78b557a51748d7f6/Vishwaroopam.2.2018.Telugu.Org.Vers.WEB-HD.1080p.AVC.DD5.1.ESub-TMV.part4.rar
http://www.heroupload.us/d2204cbbfefcec0d/Vishwaroopam.2.2018.Telugu.Org.Vers.WEB-HD.1080p.AVC.DD5.1.ESub-TMV.part5.rar
http://www.heroupload.us/e2f1e8506a95c7f4/Vishwaroopam.2.2018.Telugu.Org.Vers.WEB-HD.1080p.AVC.DD5.1.ESub-TMV.srt



http://filefloater.com/1KM0/Vishwaroopam.2.2018.Telugu.Org.Vers.WEB-HD.1080p.AVC.DD5.1.ESub-TMV.part1.rar
http://filefloater.com/1KM1/Vishwaroopam.2.2018.Telugu.Org.Vers.WEB-HD.1080p.AVC.DD5.1.ESub-TMV.part2.rar
http://filefloater.com/1KM2/Vishwaroopam.2.2018.Telugu.Org.Vers.WEB-HD.1080p.AVC.DD5.1.ESub-TMV.part3.rar
http://filefloater.com/1KM3/Vishwaroopam.2.2018.Telugu.Org.Vers.WEB-HD.1080p.AVC.DD5.1.ESub-TMV.part4.rar
http://filefloater.com/1KM4/Vishwaroopam.2.2018.Telugu.Org.Vers.WEB-HD.1080p.AVC.DD5.1.ESub-TMV.part5.rar
http://filefloater.com/1KM5/Vishwaroopam.2.2018.Telugu.Org.Vers.WEB-HD.1080p.AVC.DD5.1.ESub-TMV.srt


Buy Premium From My Links & Support Me

Add a comment

Name:* E-Mail:*
Bold Italic Underline Strike | Align left Center Align right | Insert smilies Insert link URLInsert protected URL Select color | Add Hidden Text Insert Quote Convert selected text from selection to Cyrillic (Russian) alphabet Insert spoiler
Enter the code below: *