Rss
Calendar
«    December 2018    »
MonTueWedThuFriSatSun
 12
3456789
10111213141516
17181920212223
24252627282930
31 
Friends of the site
» » Star Screen Awards (2018) 720p - HDTV - x264 - AAC-Team Jio Exclusive
  • Author: wroser
  • |
  • Comments: 1
  • |
  • Views: 369
Star Screen Awards (2018) 720p - HDTV - x264 - AAC-Team Jio Exclusive






Format                      : MPEG-4
Format profile              : Base Media
Codec ID                    : isom (isom/iso2/avc1/mp41)
File size                   : 2.22 GiB
Duration                    : 2 h 33 min
Overall bit rate mode       : Variable
Overall bit rate            : 2 067 kb/s
Writing application         : Lavf56.40.101

Video
ID                          : 1
Format                      : AVC
Format/Info                 : Advanced Video Codec
Format profile              : Main@L3.1
Format settings             : CABAC / 1 Ref Frames
Format settings, CABAC      : Yes
Format settings, ReFrames   : 1 frame
Format settings, GOP        : M=1, N=25
Codec ID                    : avc1
Codec ID/Info               : Advanced Video Coding
Duration                    : 2 h 33 min
Bit rate mode               : Constant
Bit rate                    : 2 000 kb/s
Width                       : 1 280 pixels
Height                      : 720 pixels
Display aspect ratio        : 16:9
Frame rate mode             : Constant
Frame rate                  : 25.000 FPS
Color space                 : YUV
Chroma subsampling          : 4:2:0
Bit depth                   : 8 bits
Scan type                   : Progressive
Bits/(Pixel*Frame)          : 0.087
Stream size                 : 2.15 GiB (97%)

Audio
ID                          : 2
Format                      : AAC
Format/Info                 : Advanced Audio Codec
Format profile              : LC
Codec ID                    : mp4a-40-2
Duration                    : 2 h 33 min
Bit rate mode               : Variable
Bit rate                    : 61.4 kb/s
Maximum bit rate            : 63.8 kb/s
Channel(s)                  : 2 channels
Channel positions           : Front: L R
Sampling rate               : 48.0 kHz
Frame rate                  : 46.875 FPS (1024 SPF)
Compression mode            : Lossy
Stream size                 : 67.6 MiB (3%)
Default                     : Yes
Alternate group             : 1



Star Screen Awards (2018) 720p - HDTV - x264 - AAC-Team Jio ExclusiveStar Screen Awards (2018) 720p - HDTV - x264 - AAC-Team Jio ExclusiveStar Screen Awards (2018) 720p - HDTV - x264 - AAC-Team Jio ExclusiveStar Screen Awards (2018) 720p - HDTV - x264 - AAC-Team Jio ExclusiveStar Screen Awards (2018) 720p - HDTV - x264 - AAC-Team Jio ExclusiveStar Screen Awards (2018) 720p - HDTV - x264 - AAC-Team Jio ExclusiveStar Screen Awards (2018) 720p - HDTV - x264 - AAC-Team Jio ExclusiveStar Screen Awards (2018) 720p - HDTV - x264 - AAC-Team Jio Exclusive


SINGLE DIRECT FAST LINKS
https://www.heroupload.com/bfc9da76cc6e4b3b/Star.Screen.Awards.2018.Main.event.720p.HDTV.AAC.2.0-Team.Jio.mp4


http://filefloater.com/9jw/Star.Screen.Awards.2018.Main.event.720p.HDTV.AAC.2.0-Team.Jio.mp4

700MB LINKS


https://www.heroupload.com/0a14143c8e32108c/Star.Screen.Awards.2018.Main.event.720p.HDTV.AAC.2.0-Team.Jio.part1.rar
https://www.heroupload.com/090307434f6575f2/Star.Screen.Awards.2018.Main.event.720p.HDTV.AAC.2.0-Team.Jio.part2.rar
https://www.heroupload.com/ec3b37878ea1f7a1/Star.Screen.Awards.2018.Main.event.720p.HDTV.AAC.2.0-Team.Jio.part3.rar
https://www.heroupload.com/905395640cdd3afe/Star.Screen.Awards.2018.Main.event.720p.HDTV.AAC.2.0-Team.Jio.part4.rar



http://filefloater.com/9jx/Star.Screen.Awards.2018.Main.event.720p.HDTV.AAC.2.0-Team.Jio.part1.rar
http://filefloater.com/9jy/Star.Screen.Awards.2018.Main.event.720p.HDTV.AAC.2.0-Team.Jio.part2.rar
http://filefloater.com/9jz/Star.Screen.Awards.2018.Main.event.720p.HDTV.AAC.2.0-Team.Jio.part3.rar
http://filefloater.com/470/Star.Screen.Awards.2018.Main.event.720p.HDTV.AAC.2.0-Team.Jio.part4.rar


  • 1
Научись читать

---
По-моему это уже обсуждалось medical mall pharmacy toms river nj, london drugs lougheed mall pharmacy и pharmacy mall coupon code for pharmacy mall

Add a comment

Name:* E-Mail:*
Bold Italic Underline Strike | Align left Center Align right | Insert smilies Insert link URLInsert protected URL Select color | Add Hidden Text Insert Quote Convert selected text from selection to Cyrillic (Russian) alphabet Insert spoiler
Enter the code below: *