Rss
Calendar
«    December 2018    »
MonTueWedThuFriSatSun
 12
3456789
10111213141516
17181920212223
24252627282930
31 
Friends of the site
» » Love Per Square Foot (2018) Hindi - 720p - WEBRip - x264 - DD5.1 - ESub-Freaky
  • Author: wroser
  • |
  • Comments: 0
  • |
  • Views: 118
Love Per Square Foot (2018) Hindi - 720p - WEBRip - x264 - DD5.1 - ESub-Freaky







General
Format                      : Matroska
Format version              : Version 4 / Version 2
File size                   : 1.28 GiB
Duration                    : 2 h 13 min
Overall bit rate            : 1 373 kb/s

Video
ID                          : 1
Format                      : AVC
Format/Info                 : Advanced Video Codec
Format profile              : High@L4.1
Format settings             : CABAC / 4 Ref Frames
Format settings, CABAC      : Yes
Format settings, ReFrames   : 4 frames
Codec ID                    : V_MPEG4/ISO/AVC
Duration                    : 2 h 13 min
Bit rate                    : 1 200 kb/s
Width                       : 1 280 pixels
Height                      : 532 pixels
Display aspect ratio        : 2.40:1
Frame rate mode             : Constant
Frame rate                  : 24.000 FPS
Color space                 : YUV
Chroma subsampling          : 4:2:0
Bit depth                   : 8 bits
Scan type                   : Progressive
Bits/(Pixel*Frame)          : 0.073
Stream size                 : 1.10 GiB (86%)
Writing library             : x264 core 148 r2708 86b7198
Default                     : Yes
Forced                      : No

Audio
ID                          : 3
Format                      : AC-3
Format/Info                 : Audio Coding 3
Codec ID                    : A_AC3
Duration                    : 2 h 13 min
Bit rate mode               : Constant
Bit rate                    : 192 kb/s
Channel(s)                  : 6 channels
Channel positions           : Front: L C R, Side: L R, LFE
Sampling rate               : 48.0 kHz
Frame rate                  : 31.250 FPS (1536 SPF)
Bit depth                   : 16 bits
Compression mode            : Lossy
Stream size                 : 183 MiB (14%)
Language                    : Hindi
Service kind                : Complete Main
Default                     : Yes
Forced                      : No

Text
ID                          : 2
Format                      : UTF-8
Codec ID                    : S_TEXT/UTF8
Codec ID/Info               : UTF-8 Plain Text
Duration                    : 2 h 6 min
Bit rate                    : 89 b/s
Count of elements           : 2233
Stream size                 : 82.8 KiB (0%)
Language                    : English
Default                     : Yes
Forced                      : Yes


Love Per Square Foot (2018) Hindi - 720p - WEBRip - x264 - DD5.1 - ESub-FreakyLove Per Square Foot (2018) Hindi - 720p - WEBRip - x264 - DD5.1 - ESub-FreakyLove Per Square Foot (2018) Hindi - 720p - WEBRip - x264 - DD5.1 - ESub-FreakyLove Per Square Foot (2018) Hindi - 720p - WEBRip - x264 - DD5.1 - ESub-FreakyLove Per Square Foot (2018) Hindi - 720p - WEBRip - x264 - DD5.1 - ESub-FreakyLove Per Square Foot (2018) Hindi - 720p - WEBRip - x264 - DD5.1 - ESub-FreakyLove Per Square Foot (2018) Hindi - 720p - WEBRip - x264 - DD5.1 - ESub-FreakyLove Per Square Foot (2018) Hindi - 720p - WEBRip - x264 - DD5.1 - ESub-FreakyLove Per Square Foot (2018) Hindi - 720p - WEBRip - x264 - DD5.1 - ESub-Freaky

SINGLE DIRECT FAST LINKS

https://www.heroupload.com/a1daeecc87297002/Love.Per.Square.Foot.2018.720p.WEBRip.DD5.1.x264.ESub-Exclusive.mkv



http://filefloater.com/774/Love.Per.Square.Foot.2018.720p.WEBRip.DD5.1.x264.ESub-Exclusive.mkv


Add a comment

Name:* E-Mail:*
Bold Italic Underline Strike | Align left Center Align right | Insert smilies Insert link URLInsert protected URL Select color | Add Hidden Text Insert Quote Convert selected text from selection to Cyrillic (Russian) alphabet Insert spoiler
Enter the code below: *