Rss
Calendar
«    December 2018    »
MonTueWedThuFriSatSun
 12
3456789
10111213141516
17181920212223
24252627282930
31 
Friends of the site
» » Love and Shukla (2018) 1080p - WEB-DL - AVC - AAC - Esubs-TT Exclusive
  • Author: wroser
  • |
  • Comments: 0
  • |
  • Views: 128
Love and Shukla (2018) 1080p - WEB-DL - AVC - AAC - Esubs-TT Exclusive





Format                      : MPEG-4
Format profile              : Base Media
Codec ID                    : isom (isom/iso2/avc1/mp41)
File size                   : 3.09 GiB
Duration                    : 1 h 50 min
Overall bit rate            : 4 020 kb/s
Writing application         : Lavf58.12.100

Video
ID                          : 1
Format                      : AVC
Format/Info                 : Advanced Video Codec
Format profile              : Main@L4
Format settings, CABAC      : Yes
Format settings, RefFrames  : 3 frames
Codec ID                    : avc1
Codec ID/Info               : Advanced Video Coding
Duration                    : 1 h 50 min
Bit rate                    : 3 919 kb/s
Width                       : 1 920 pixels
Height                      : 1 080 pixels
Display aspect ratio        : 16:9
Frame rate mode             : Constant
Frame rate                  : 24.000 FPS
Color space                 : YUV
Chroma subsampling          : 4:2:0
Bit depth                   : 8 bits
Scan type                   : Progressive
Bits/(Pixel*Frame)          : 0.079
Stream size                 : 3.01 GiB (97%)

Audio
ID                          : 2
Format                      : AAC
Format/Info                 : Advanced Audio Codec
Format profile              : HE-AAC / LC
Codec ID                    : 40
Duration                    : 1 h 50 min
Bit rate mode               : Constant
Bit rate                    : 96.0 kb/s
Channel(s)                  : 2 channels
Channel positions           : Front: L R
Sampling rate               : 48.0 kHz / 24.0 kHz
Frame rate                  : 23.438 FPS (1024 SPF)
Compression mode            : Lossy
Stream size                 : 75.6 MiB (2%)
Default                     : Yes
Alternate group             : 1



Love and Shukla (2018) 1080p - WEB-DL - AVC - AAC - Esubs-TT ExclusiveLove and Shukla (2018) 1080p - WEB-DL - AVC - AAC - Esubs-TT ExclusiveLove and Shukla (2018) 1080p - WEB-DL - AVC - AAC - Esubs-TT ExclusiveLove and Shukla (2018) 1080p - WEB-DL - AVC - AAC - Esubs-TT ExclusiveLove and Shukla (2018) 1080p - WEB-DL - AVC - AAC - Esubs-TT ExclusiveLove and Shukla (2018) 1080p - WEB-DL - AVC - AAC - Esubs-TT Exclusive

SINGLE DIRECT FAST LINKS
http://www.heroupload.us/b918ee7998f26336/Love.and.Shukla.2018.1080p.WEB-DL.AVC.AAC.Esubs-TT.mp4


http://filefloater.com/Uyb/Love.and.Shukla.2018.1080p.WEB-DL.AVC.AAC.Esubs-TT.mp4

1GB LINKS

http://www.heroupload.us/2c3032c1acb61359/Love.and.Shukla.2018.1080p.WEB-DL.AVC.AAC.Esubs-TT.part1.rar
http://www.heroupload.us/e1c312f61ccdd053/Love.and.Shukla.2018.1080p.WEB-DL.AVC.AAC.Esubs-TT.part2.rar
http://www.heroupload.us/90fcda9b4a591d5a/Love.and.Shukla.2018.1080p.WEB-DL.AVC.AAC.Esubs-TT.part3.rar
http://www.heroupload.us/b77c72ea7d2fcc4e/Love.and.Shukla.2018.1080p.WEB-DL.AVC.AAC.Esubs-TT.part4.rar
http://www.heroupload.us/03f99ed1c643f650/Love.and.Shukla.2018.1080p.WEB-DL.AVC.AAC.Esubs-TT.srt



http://filefloater.com/Uyc/Love.and.Shukla.2018.1080p.WEB-DL.AVC.AAC.Esubs-TT.part1.rar
http://filefloater.com/Uyd/Love.and.Shukla.2018.1080p.WEB-DL.AVC.AAC.Esubs-TT.part2.rar
http://filefloater.com/Uye/Love.and.Shukla.2018.1080p.WEB-DL.AVC.AAC.Esubs-TT.part3.rar
http://filefloater.com/Uyf/Love.and.Shukla.2018.1080p.WEB-DL.AVC.AAC.Esubs-TT.part4.rar
http://filefloater.com/Uyg/Love.and.Shukla.2018.1080p.WEB-DL.AVC.AAC.Esubs-TT.srt



Buy Premium From My Links & Support Me

Add a comment

Name:* E-Mail:*
Bold Italic Underline Strike | Align left Center Align right | Insert smilies Insert link URLInsert protected URL Select color | Add Hidden Text Insert Quote Convert selected text from selection to Cyrillic (Russian) alphabet Insert spoiler
Enter the code below: *