Rss
Calendar
«    December 2018    »
MonTueWedThuFriSatSun
 12
3456789
10111213141516
17181920212223
24252627282930
31 
Friends of the site
» » Annanukku Jai (2018) Tamil - 1080p - WEB-HD - AVC - AAC - ESub-TMV
  • Author: wroser
  • |
  • Comments: 0
  • |
  • Views: 110
Annanukku Jai (2018) Tamil - 1080p - WEB-HD - AVC - AAC - ESub-TMV





Format                      : MPEG-4
Format profile              : Base Media
Codec ID                    : isom (isom)
File size                   : 6.31 GiB
Duration                    : 1 h 44 min
Overall bit rate mode       : Variable
Overall bit rate            : 8 630 kb/s
Encoded date                : UTC 2018-09-20 15:44:16
Tagged date                 : UTC 2018-09-20 15:44:16
Writing application         : MkvToMp4 [www.mkvtomp4.ru] version 0.224 (x64)

Video
ID                          : 1
Format                      : AVC
Format/Info                 : Advanced Video Codec
Format profile              : High@L4
Format settings, CABAC      : Yes
Format settings, RefFrames  : 3 frames
Format settings, GOP        : M=4, N=90
Codec ID                    : avc1
Codec ID/Info               : Advanced Video Coding
Duration                    : 1 h 44 min
Source duration             : 1 h 44 min
Bit rate mode               : Constant
Bit rate                    : 8 500 kb/s
Maximum bit rate            : 15.0 Mb/s
Width                       : 1 920 pixels
Height                      : 1 080 pixels
Display aspect ratio        : 16:9
Frame rate mode             : Constant
Frame rate                  : 29.970 (30000/1001) FPS
Standard                    : PAL
Color space                 : YUV
Chroma subsampling          : 4:2:0
Bit depth                   : 8 bits
Scan type                   : Progressive
Bits/(Pixel*Frame)          : 0.137
Stream size                 : 5.96 GiB (94%)
Source stream size          : 6.22 GiB (99%)
Language                    : English
Tagged date                 : UTC 2018-09-20 15:44:31
Color range                 : Limited
Color primaries             : BT.709
Transfer characteristics    : BT.709
Matrix coefficients         : BT.709

Audio
ID                          : 2
Format                      : AAC
Format/Info                 : Advanced Audio Codec
Format profile              : LC
Codec ID                    : 40
Duration                    : 1 h 44 min
Bit rate mode               : Variable
Bit rate                    : 125 kb/s
Maximum bit rate            : 132 kb/s
Channel(s)                  : 2 channels
Channel positions           : Front: L R
Sampling rate               : 48.0 kHz
Frame rate                  : 46.875 FPS (1024 SPF)
Compression mode            : Lossy
Stream size                 : 93.9 MiB (1%)
Language                    : English
Default                     : Yes
Alternate group             : 1
Encoded date                : UTC 2018-09-20 15:44:28
Tagged date                 : UTC 2018-09-20 15:44:31



Annanukku Jai (2018) Tamil - 1080p - WEB-HD - AVC - AAC - ESub-TMVAnnanukku Jai (2018) Tamil - 1080p - WEB-HD - AVC - AAC - ESub-TMVAnnanukku Jai (2018) Tamil - 1080p - WEB-HD - AVC - AAC - ESub-TMVAnnanukku Jai (2018) Tamil - 1080p - WEB-HD - AVC - AAC - ESub-TMV


SINGLE DIRECT FAST LINKS

http://www.heroupload.us/5aea0eeb751d68b0/Annanukku.Jai.2018.Tamil.1080p.HD.AVC.MP4.ESubs-MTR.mp4


1GB LINKS

http://www.heroupload.us/6abb53829b183a3b/Annanukku.Jai.2018.Tamil.1080p.HD.AVC.MP4.ESubs-MTR.part1.rar
http://www.heroupload.us/eaa94a73de3ba727/Annanukku.Jai.2018.Tamil.1080p.HD.AVC.MP4.ESubs-MTR.part2.rar
http://www.heroupload.us/ba425e9edc1aff71/Annanukku.Jai.2018.Tamil.1080p.HD.AVC.MP4.ESubs-MTR.part3.rar
http://www.heroupload.us/ccf7e43e44c10467/Annanukku.Jai.2018.Tamil.1080p.HD.AVC.MP4.ESubs-MTR.part4.rar
http://www.heroupload.us/3acce62858b6052d/Annanukku.Jai.2018.Tamil.1080p.HD.AVC.MP4.ESubs-MTR.part5.rar
http://www.heroupload.us/f1e06c9a939aae2c/Annanukku.Jai.2018.Tamil.1080p.HD.AVC.MP4.ESubs-MTR.part6.rar
http://www.heroupload.us/93d3c35e04537449/Annanukku.Jai.2018.Tamil.1080p.HD.AVC.MP4.ESubs-MTR.part7.rar
http://www.heroupload.us/9ca7e047d8b6f18c/Annanukku.Jai.2018.Tamil.1080p.HD.AVC.MP4.ESubs-MTR.srt



http://filefloater.com/2ARi/Annanukku.Jai.2018.Tamil.1080p.HD.AVC.MP4.ESubs-MTR.part1.rar
http://filefloater.com/2ARj/Annanukku.Jai.2018.Tamil.1080p.HD.AVC.MP4.ESubs-MTR.part2.rar
http://filefloater.com/2ARk/Annanukku.Jai.2018.Tamil.1080p.HD.AVC.MP4.ESubs-MTR.part3.rar
http://filefloater.com/2ARl/Annanukku.Jai.2018.Tamil.1080p.HD.AVC.MP4.ESubs-MTR.part4.rar
http://filefloater.com/2ARm/Annanukku.Jai.2018.Tamil.1080p.HD.AVC.MP4.ESubs-MTR.part5.rar
http://filefloater.com/2ARn/Annanukku.Jai.2018.Tamil.1080p.HD.AVC.MP4.ESubs-MTR.part6.rar
http://filefloater.com/2ARo/Annanukku.Jai.2018.Tamil.1080p.HD.AVC.MP4.ESubs-MTR.part7.rar
http://filefloater.com/2ARp/Annanukku.Jai.2018.Tamil.1080p.HD.AVC.MP4.ESubs-MTR.srt


Buy Premium From My Links & Support Me

Add a comment

Name:* E-Mail:*
Bold Italic Underline Strike | Align left Center Align right | Insert smilies Insert link URLInsert protected URL Select color | Add Hidden Text Insert Quote Convert selected text from selection to Cyrillic (Russian) alphabet Insert spoiler
Enter the code below: *