Rss
Calendar
«    December 2018    »
MonTueWedThuFriSatSun
 12
3456789
10111213141516
17181920212223
24252627282930
31 
Friends of the site
» » Nawabzaade (2018) 720p - WEB-DL - x264 - AAC 2.0-TeamTT Exclusive
  • Author: wroser
  • |
  • Comments: 0
  • |
  • Views: 83
Nawabzaade (2018) 720p - WEB-DL - x264 - AAC 2.0-TeamTT Exclusive





Format                      : Matroska
Format version              : Version 4 / Version 2
File size                   : 2.20 GiB
Duration                    : 1 h 48 min
Overall bit rate            : 2 903 kb/s
Encoded date                : UTC 2018-09-22 05:17:34
Writing application         : mkvmerge v26.0.0 ('In The Game') 64-bit
Writing library             : libebml v1.3.6 + libmatroska v1.4.9

Video
ID                          : 1
Format                      : AVC
Format/Info                 : Advanced Video Codec
Format profile              : Baseline@L3.1
Format settings, CABAC      : No
Format settings, RefFrames  : 1 frame
Codec ID                    : V_MPEG4/ISO/AVC
Duration                    : 1 h 48 min
Bit rate                    : 2 801 kb/s
Width                       : 1 280 pixels
Height                      : 720 pixels
Display aspect ratio        : 16:9
Frame rate mode             : Variable
Frame rate                  : 23.670 FPS
Color space                 : YUV
Chroma subsampling          : 4:2:0
Bit depth                   : 8 bits
Scan type                   : Progressive
Bits/(Pixel*Frame)          : 0.128
Stream size                 : 2.12 GiB (97%)
Title                       : Tellytorrent.net
Default                     : Yes
Forced                      : No

Audio
ID                          : 2
Format                      : AAC
Format/Info                 : Advanced Audio Codec
Format profile              : LC
Codec ID                    : A_AAC
Duration                    : 1 h 48 min
Bit rate                    : 99.1 kb/s
Channel(s)                  : 2 channels
Channel positions           : Front: L R
Sampling rate               : 48.0 kHz
Frame rate                  : 46.875 FPS (1024 SPF)
Compression mode            : Lossy
Stream size                 : 76.9 MiB (3%)
Default                     : Yes
Forced                      : No



Nawabzaade (2018) 720p - WEB-DL - x264 - AAC 2.0-TeamTT ExclusiveNawabzaade (2018) 720p - WEB-DL - x264 - AAC 2.0-TeamTT ExclusiveNawabzaade (2018) 720p - WEB-DL - x264 - AAC 2.0-TeamTT ExclusiveNawabzaade (2018) 720p - WEB-DL - x264 - AAC 2.0-TeamTT ExclusiveNawabzaade (2018) 720p - WEB-DL - x264 - AAC 2.0-TeamTT ExclusiveNawabzaade (2018) 720p - WEB-DL - x264 - AAC 2.0-TeamTT ExclusiveNawabzaade (2018) 720p - WEB-DL - x264 - AAC 2.0-TeamTT Exclusive


SINGLE DIRECT FAST LINKS
http://www.heroupload.us/80f13755a6c899d4/Nawabzaade.2018.720p.WEB-DL.AVC.AAC2.0-TeamTT.Exclusive.mkv


http://filefloater.com/2ASe/Nawabzaade.2018.720p.WEB-DL.AVC.AAC2.0-TeamTT.Exclusive.mkv

700MB LINKS

http://www.heroupload.us/67ee22f6c77722ad/Nawabzaade.2018.720p.WEB-DL.AVC.AAC2.0-TeamTT.Exclusive.part1.rar
http://www.heroupload.us/f72dd3fc7cb278a1/Nawabzaade.2018.720p.WEB-DL.AVC.AAC2.0-TeamTT.Exclusive.part2.rar
http://www.heroupload.us/ae563564b10995da/Nawabzaade.2018.720p.WEB-DL.AVC.AAC2.0-TeamTT.Exclusive.part3.rar
http://www.heroupload.us/3729680198df1cca/Nawabzaade.2018.720p.WEB-DL.AVC.AAC2.0-TeamTT.Exclusive.part4.rar



http://filefloater.com/2ASf/Nawabzaade.2018.720p.WEB-DL.AVC.AAC2.0-TeamTT.Exclusive.part1.rar
http://filefloater.com/2ASg/Nawabzaade.2018.720p.WEB-DL.AVC.AAC2.0-TeamTT.Exclusive.part2.rar
http://filefloater.com/2ASh/Nawabzaade.2018.720p.WEB-DL.AVC.AAC2.0-TeamTT.Exclusive.part3.rar
http://filefloater.com/2ASi/Nawabzaade.2018.720p.WEB-DL.AVC.AAC2.0-TeamTT.Exclusive.part4.rar



Buy Premium From My Links & Support Me

Add a comment

Name:* E-Mail:*
Bold Italic Underline Strike | Align left Center Align right | Insert smilies Insert link URLInsert protected URL Select color | Add Hidden Text Insert Quote Convert selected text from selection to Cyrillic (Russian) alphabet Insert spoiler
Enter the code below: *