Rss
Calendar
«    December 2018    »
MonTueWedThuFriSatSun
 12
3456789
10111213141516
17181920212223
24252627282930
31 
Friends of the site
» » Raja Ranguski (2018) Tamil - Ultra WEB-HD - 4K - AVC - DD5.1- Esubs-TMV
  • Author: wroser
  • |
  • Comments: 0
  • |
  • Views: 91
Raja Ranguski (2018) Tamil - Ultra WEB-HD - 4K - AVC - DD5.1- Esubs-TMV





Format                      : MPEG-4
Codec ID                    : M4V  (isom/avc1/mp42)
File size                   : 4.46 GiB
Duration                    : 1 h 54 min
Overall bit rate mode       : Variable
Overall bit rate            : 5 584 kb/s
Encoded date                : UTC 2018-10-04 12:29:34
Tagged date                 : UTC 2018-10-04 12:29:34

Video
ID                          : 1
Format                      : AVC
Format/Info                 : Advanced Video Codec
Format profile              : Main@L5.1
Format settings, CABAC      : Yes
Format settings, RefFrames  : 3 frames
Codec ID                    : avc1
Codec ID/Info               : Advanced Video Coding
Duration                    : 1 h 54 min
Bit rate mode               : Constant
Bit rate                    : 5 000 kb/s
Maximum bit rate            : 12.9 Mb/s
Width                       : 3 840 pixels
Height                      : 2 160 pixels
Display aspect ratio        : 16:9
Frame rate mode             : Constant
Frame rate                  : 25.000 FPS
Standard                    : PAL
Color space                 : YUV
Chroma subsampling          : 4:2:0
Bit depth                   : 8 bits
Scan type                   : Progressive
Bits/(Pixel*Frame)          : 0.024
Stream size                 : 3.99 GiB (90%)
Encoded date                : UTC 2018-10-04 12:29:34
Tagged date                 : UTC 2018-10-04 12:29:34
Color range                 : Limited
Color primaries             : BT.709
Transfer characteristics    : BT.709
Matrix coefficients         : BT.709

Audio #1
ID                          : 2
Format                      : AAC
Format/Info                 : Advanced Audio Codec
Format profile              : LC
Codec ID                    : 40
Duration                    : 1 h 54 min
Bit rate mode               : Variable
Bit rate                    : 128 kb/s
Maximum bit rate            : 133 kb/s
Channel(s)                  : 2 channels
Channel positions           : Front: L R
Sampling rate               : 48.0 kHz
Frame rate                  : 46.875 FPS (1024 SPF)
Compression mode            : Lossy
Stream size                 : 103 MiB (2%)
Encoded date                : UTC 2018-10-04 12:29:35
Tagged date                 : UTC 2018-10-04 12:29:35

Audio #2
ID                          : 3
Format                      : AC-3
Format/Info                 : Audio Coding 3
Format settings, Endianness : Big
Codec ID                    : ac-3
Duration                    : 1 h 54 min
Bit rate mode               : Constant
Bit rate                    : 448 kb/s
Channel(s)                  : 6 channels
Channel positions           : Front: L C R, Side: L R, LFE
Sampling rate               : 48.0 kHz
Frame rate                  : 31.250 FPS (1536 SPF)
Bit depth                   : 16 bits
Compression mode            : Lossy
Stream size                 : 366 MiB (8%)
Service kind                : Complete Main
Encoded date                : UTC 2018-10-04 12:29:35
Tagged date                 : UTC 2018-10-04 12:29:35



Raja Ranguski (2018) Tamil - Ultra WEB-HD - 4K - AVC - DD5.1- Esubs-TMVRaja Ranguski (2018) Tamil - Ultra WEB-HD - 4K - AVC - DD5.1- Esubs-TMVRaja Ranguski (2018) Tamil - Ultra WEB-HD - 4K - AVC - DD5.1- Esubs-TMVRaja Ranguski (2018) Tamil - Ultra WEB-HD - 4K - AVC - DD5.1- Esubs-TMVRaja Ranguski (2018) Tamil - Ultra WEB-HD - 4K - AVC - DD5.1- Esubs-TMVRaja Ranguski (2018) Tamil - Ultra WEB-HD - 4K - AVC - DD5.1- Esubs-TMVRaja Ranguski (2018) Tamil - Ultra WEB-HD - 4K - AVC - DD5.1- Esubs-TMVRaja Ranguski (2018) Tamil - Ultra WEB-HD - 4K - AVC - DD5.1- Esubs-TMVRaja Ranguski (2018) Tamil - Ultra WEB-HD - 4K - AVC - DD5.1- Esubs-TMV


SINGLE DIRECT FAST LINKS

http://www.heroupload.us/fc9d32d2954903e4/Raja.Ranguski.2018.Tamil.Proper.Ultra.WEB-HD.4K.AVC.DD5.1.ESub-TMV.mp4


http://filefloater.com/2AXs/Raja.Ranguski.2018.Tamil.Proper.Ultra.WEB-HD.4K.AVC.DD5.1.ESub-TMV.mp4

1GB LINKS



http://www.heroupload.us/e6d55c6f37c2f5b9/Raja.Ranguski.2018.Tamil.Proper.Ultra.WEB-HD.4K.AVC.DD5.1.ESub-TMV.part1.rar
http://www.heroupload.us/008a4e6e63f95015/Raja.Ranguski.2018.Tamil.Proper.Ultra.WEB-HD.4K.AVC.DD5.1.ESub-TMV.part2.rar
http://www.heroupload.us/7df1440b8c3ab41b/Raja.Ranguski.2018.Tamil.Proper.Ultra.WEB-HD.4K.AVC.DD5.1.ESub-TMV.part3.rar
http://www.heroupload.us/0aeca13afbea6c72/Raja.Ranguski.2018.Tamil.Proper.Ultra.WEB-HD.4K.AVC.DD5.1.ESub-TMV.part4.rar
http://www.heroupload.us/07fa39c200f91be4/Raja.Ranguski.2018.Tamil.Proper.Ultra.WEB-HD.4K.AVC.DD5.1.ESub-TMV.part5.rar



http://filefloater.com/2AXt/Raja.Ranguski.2018.Tamil.Proper.Ultra.WEB-HD.4K.AVC.DD5.1.ESub-TMV.part1.rar
http://filefloater.com/2AXu/Raja.Ranguski.2018.Tamil.Proper.Ultra.WEB-HD.4K.AVC.DD5.1.ESub-TMV.part2.rar
http://filefloater.com/2AXv/Raja.Ranguski.2018.Tamil.Proper.Ultra.WEB-HD.4K.AVC.DD5.1.ESub-TMV.part3.rar
http://filefloater.com/2AXw/Raja.Ranguski.2018.Tamil.Proper.Ultra.WEB-HD.4K.AVC.DD5.1.ESub-TMV.part4.rar
http://filefloater.com/2AXx/Raja.Ranguski.2018.Tamil.Proper.Ultra.WEB-HD.4K.AVC.DD5.1.ESub-TMV.part5.rar


Buy Premium From My Links & Support Me

Add a comment

Name:* E-Mail:*
Bold Italic Underline Strike | Align left Center Align right | Insert smilies Insert link URLInsert protected URL Select color | Add Hidden Text Insert Quote Convert selected text from selection to Cyrillic (Russian) alphabet Insert spoiler
Enter the code below: *