Rss
Calendar
«    December 2018    »
MonTueWedThuFriSatSun
 12
3456789
10111213141516
17181920212223
24252627282930
31 
Friends of the site
» » Kalari (2018) Tamil - Ultra WEB-HD - 4K - AVC - DD5.1- Esubs-TMV
  • Author: wroser
  • |
  • Comments: 0
  • |
  • Views: 90
Kalari (2018) Tamil - Ultra WEB-HD - 4K - AVC - DD5.1- Esubs-TMV





Format                      : MPEG-4
Codec ID                    : M4V  (isom/avc1/mp42)
File size                   : 5.09 GiB
Duration                    : 2 h 8 min
Overall bit rate mode       : Variable
Overall bit rate            : 5 647 kb/s
Encoded date                : UTC 2018-10-04 15:26:01
Tagged date                 : UTC 2018-10-04 15:26:01

Video
ID                          : 1
Format                      : AVC
Format/Info                 : Advanced Video Codec
Format profile              : Main@L5.1
Format settings, CABAC      : Yes
Format settings, RefFrames  : 3 frames
Format settings, GOP        : M=3, N=90
Codec ID                    : avc1
Codec ID/Info               : Advanced Video Coding
Duration                    : 2 h 8 min
Bit rate mode               : Constant
Bit rate                    : 5 000 kb/s
Maximum bit rate            : 13.9 Mb/s
Width                       : 3 840 pixels
Height                      : 2 160 pixels
Display aspect ratio        : 16:9
Frame rate mode             : Constant
Frame rate                  : 24.000 FPS
Color space                 : YUV
Chroma subsampling          : 4:2:0
Bit depth                   : 8 bits
Scan type                   : Progressive
Bits/(Pixel*Frame)          : 0.025
Stream size                 : 4.50 GiB (89%)
Encoded date                : UTC 2018-10-04 15:26:01
Tagged date                 : UTC 2018-10-04 15:26:01
Color range                 : Limited
Color primaries             : BT.709
Transfer characteristics    : BT.709
Matrix coefficients         : BT.709

Audio #1
ID                          : 2
Format                      : AAC
Format/Info                 : Advanced Audio Codec
Format profile              : LC
Codec ID                    : 40
Duration                    : 2 h 8 min
Bit rate mode               : Variable
Bit rate                    : 128 kb/s
Maximum bit rate            : 134 kb/s
Channel(s)                  : 2 channels
Channel positions           : Front: L R
Sampling rate               : 48.0 kHz
Frame rate                  : 46.875 FPS (1024 SPF)
Compression mode            : Lossy
Stream size                 : 116 MiB (2%)
Language                    : English
Encoded date                : UTC 2018-10-04 15:26:01
Tagged date                 : UTC 2018-10-04 15:26:01

Audio #2
ID                          : 3
Format                      : AC-3
Format/Info                 : Audio Coding 3
Format settings, Endianness : Big
Codec ID                    : ac-3
Duration                    : 2 h 8 min
Bit rate mode               : Constant
Bit rate                    : 512 kb/s
Channel(s)                  : 6 channels
Channel positions           : Front: L C R, Side: L R, LFE
Sampling rate               : 48.0 kHz
Frame rate                  : 31.250 FPS (1536 SPF)
Bit depth                   : 16 bits
Compression mode            : Lossy
Stream size                 : 472 MiB (9%)
Language                    : English
Service kind                : Complete Main
Encoded date                : UTC 2018-10-04 15:26:01
Tagged date                 : UTC 2018-10-04 15:26:01



Kalari (2018) Tamil - Ultra WEB-HD - 4K - AVC - DD5.1- Esubs-TMVKalari (2018) Tamil - Ultra WEB-HD - 4K - AVC - DD5.1- Esubs-TMVKalari (2018) Tamil - Ultra WEB-HD - 4K - AVC - DD5.1- Esubs-TMVKalari (2018) Tamil - Ultra WEB-HD - 4K - AVC - DD5.1- Esubs-TMVKalari (2018) Tamil - Ultra WEB-HD - 4K - AVC - DD5.1- Esubs-TMVKalari (2018) Tamil - Ultra WEB-HD - 4K - AVC - DD5.1- Esubs-TMVKalari (2018) Tamil - Ultra WEB-HD - 4K - AVC - DD5.1- Esubs-TMV


SINGLE DIRECT FAST LINKS

http://www.heroupload.us/029d39e81e359734/Kalari.2018.Tamil.Proper.Ultra.WEB-HD.4K.AVC.DD5.1.ESub-TMV.mp4


1GB LINKS

http://www.heroupload.us/2da2bf84fed6f7c2/Kalari.2018.Tamil.Proper.Ultra.WEB-HD.4K.AVC.DD5.1.ESub-TMV.part1.rar
http://www.heroupload.us/d5a1d0ce18473eea/Kalari.2018.Tamil.Proper.Ultra.WEB-HD.4K.AVC.DD5.1.ESub-TMV.part2.rar
http://www.heroupload.us/e99ff48340199282/Kalari.2018.Tamil.Proper.Ultra.WEB-HD.4K.AVC.DD5.1.ESub-TMV.part3.rar
http://www.heroupload.us/fc0968b26500215d/Kalari.2018.Tamil.Proper.Ultra.WEB-HD.4K.AVC.DD5.1.ESub-TMV.part4.rar
http://www.heroupload.us/f915bae15ad7e176/Kalari.2018.Tamil.Proper.Ultra.WEB-HD.4K.AVC.DD5.1.ESub-TMV.part5.rar
http://www.heroupload.us/54f5fd622de1decb/Kalari.2018.Tamil.Proper.Ultra.WEB-HD.4K.AVC.DD5.1.ESub-TMV.part6.rar



http://filefloater.com/30Zx/Kalari.2018.Tamil.Proper.Ultra.WEB-HD.4K.AVC.DD5.1.ESub-TMV.part1.rar
http://filefloater.com/30Zy/Kalari.2018.Tamil.Proper.Ultra.WEB-HD.4K.AVC.DD5.1.ESub-TMV.part2.rar
http://filefloater.com/30Zz/Kalari.2018.Tamil.Proper.Ultra.WEB-HD.4K.AVC.DD5.1.ESub-TMV.part3.rar
http://filefloater.com/30ZA/Kalari.2018.Tamil.Proper.Ultra.WEB-HD.4K.AVC.DD5.1.ESub-TMV.part4.rar
http://filefloater.com/30ZB/Kalari.2018.Tamil.Proper.Ultra.WEB-HD.4K.AVC.DD5.1.ESub-TMV.part5.rar
http://filefloater.com/30ZC/Kalari.2018.Tamil.Proper.Ultra.WEB-HD.4K.AVC.DD5.1.ESub-TMV.part6.rar



Buy Premium From My Links & Support Me

Add a comment

Name:* E-Mail:*
Bold Italic Underline Strike | Align left Center Align right | Insert smilies Insert link URLInsert protected URL Select color | Add Hidden Text Insert Quote Convert selected text from selection to Cyrillic (Russian) alphabet Insert spoiler
Enter the code below: *