Rss
Calendar
«    December 2018    »
MonTueWedThuFriSatSun
 12
3456789
10111213141516
17181920212223
24252627282930
31 
Friends of the site
» » RAID (2018) 720p BluRay x264 ESub-BollywoodA2z
  • Author: wroser
  • |
  • Comments: 0
  • |
  • Views: 74
RAID (2018) 720p BluRay x264 ESub-BollywoodA2z



Format                      : Matroska
Format version              : Version 4 / Version 2
File size                   : 1.21 GiB
Duration                    : 2 h 0 min
Overall bit rate            : 1 427 kb/s
Movie name                  : RAID 2018 Hindi 720p BluRay x264 ESub [MW]
Encoded date                : UTC 2018-10-06 04:28:28
Writing application         : mkvmerge v7.4.0 ('Circles') 64bit built on Dec 12 2014 12:19:56
Writing library             : libebml v1.3.0 + libmatroska v1.4.1

Video
ID                          : 1
Format                      : AVC
Format/Info                 : Advanced Video Codec
Format profile              : High@L4.1
Format settings, CABAC      : Yes
Format settings, RefFrames  : 4 frames
Codec ID                    : V_MPEG4/ISO/AVC
Duration                    : 2 h 0 min
Bit rate                    : 1 300 kb/s
Width                       : 1 280 pixels
Height                      : 540 pixels
Display aspect ratio        : 2.40:1
Frame rate mode             : Constant
Frame rate                  : 24.000 FPS
Color space                 : YUV
Chroma subsampling          : 4:2:0
Bit depth                   : 8 bits
Scan type                   : Progressive
Bits/(Pixel*Frame)          : 0.078
Stream size                 : 1.08 GiB (90%)
Title                       : RAID 2018 Hindi 720p BluRay x264 ESub [MW]
Writing library             : x264 core 155 r2901 7d0ff22
Encoding settings           : cabac=1 / ref=4 / deblock=1:0:0 / analyse=0x3:0x113 / me=hex / subme=3 / psy=1 / psy_rd=1.00:0.00 / mixed_ref=0 / me_range=16 / chroma_me=1 / trellis=0 / 8x8dct=1 / cqm=0 / deadzone=21,11 / fast_pskip=1 / chroma_qp_offset=0 / threads=12 / lookahead_threads=3 / sliced_threads=0 / nr=0 / decimate=1 / interlaced=0 / bluray_compat=0 / constrained_intra=0 / bframes=4 / b_pyramid=2 / b_adapt=1 / b_bias=0 / direct=1 / weightb=1 / open_gop=0 / weightp=2 / keyint=240 / keyint_min=24 / scenecut=40 / intra_refresh=0 / rc_lookahead=10 / rc=abr / mbtree=1 / bitrate=1300 / ratetol=1.0 / qcomp=0.60 / qpmin=0 / qpmax=69 / qpstep=4 / vbv_maxrate=50000 / vbv_bufsize=62500 / nal_hrd=none / filler=0 / ip_ratio=1.40 / aq=1:1.00
Default                     : Yes
Forced                      : No
Color range                 : Limited
Color primaries             : BT.709
Transfer characteristics    : BT.709
Matrix coefficients         : BT.709

Audio
ID                          : 2
Format                      : AAC
Format/Info                 : Advanced Audio Codec
Format profile              : LC
Codec ID                    : A_AAC
Duration                    : 2 h 0 min
Bit rate                    : 129 kb/s
Channel(s)                  : 2 channels
Channel positions           : Front: L R
Sampling rate               : 48.0 kHz
Frame rate                  : 46.875 FPS (1024 SPF)
Compression mode            : Lossy
Delay relative to video     : -21 ms
Stream size                 : 111 MiB (9%)
Language                    : Hindi
Default                     : Yes
Forced                      : No

Text
ID                          : 3
Format                      : PGS
Muxing mode                 : zlib
Codec ID                    : S_HDMV/PGS
Codec ID/Info               : Picture based subtitle format used on BDs/HD-DVDs
Duration                    : 1 h 57 min
Bit rate                    : 12.5 kb/s
Count of elements           : 2782
Stream size                 : 10.5 MiB (1%)
Language                    : English
Default                     : Yes
Forced                      : No


RAID (2018) 720p BluRay x264 ESub-BollywoodA2zRAID (2018) 720p BluRay x264 ESub-BollywoodA2zRAID (2018) 720p BluRay x264 ESub-BollywoodA2zRAID (2018) 720p BluRay x264 ESub-BollywoodA2zRAID (2018) 720p BluRay x264 ESub-BollywoodA2zRAID (2018) 720p BluRay x264 ESub-BollywoodA2z


SINGLE DIRECT FAST LINKS

http://www.heroupload.us/7f7bfb346abfb5bf/RAID.2018.Hindi.720p.BluRay.x264.ESub-BollywoodA2z.mkv



http://filefloater.com/310H/RAID.2018.Hindi.720p.BluRay.x264.ESub-BollywoodA2z.mkv


Buy Premium From My Links & Support Me

Add a comment

Name:* E-Mail:*
Bold Italic Underline Strike | Align left Center Align right | Insert smilies Insert link URLInsert protected URL Select color | Add Hidden Text Insert Quote Convert selected text from selection to Cyrillic (Russian) alphabet Insert spoiler
Enter the code below: *