Rss
Calendar
«    December 2018    »
MonTueWedThuFriSatSun
 12
3456789
10111213141516
17181920212223
24252627282930
31 
Friends of the site
» » Imaikkaa Nodigal (2018) Proper - Tamil - 1080p - HDRip - DD5.1 - x264 Eubs-MTR
  • Author: wroser
  • |
  • Comments: 0
  • |
  • Views: 75
Imaikkaa Nodigal (2018) Proper - Tamil - 1080p - HDRip - DD5.1 - x264 Eubs-MTR





Format                      : Matroska
Format version              : Version 4 / Version 2
File size                   : 3.60 GiB
Duration                    : 2 h 48 min
Overall bit rate            : 3 056 kb/s
Encoded date                : UTC 2018-10-09 20:44:02
Writing application         : mkvmerge v24.0.0 ('Beyond The Pale') 64-bit
Writing library             : libebml v1.3.6 + libmatroska v1.4.9

Video
ID                          : 1
Format                      : AVC
Format/Info                 : Advanced Video Codec
Format profile              : High@L4.1
Format settings, CABAC      : Yes
Format settings, RefFrames  : 4 frames
Codec ID                    : V_MPEG4/ISO/AVC
Duration                    : 2 h 48 min
Bit rate                    : 2 734 kb/s
Width                       : 1 920 pixels
Height                      : 816 pixels
Display aspect ratio        : 2.35:1
Frame rate mode             : Constant
Frame rate                  : 29.970 (30000/1001) FPS
Color space                 : YUV
Chroma subsampling          : 4:2:0
Bit depth                   : 8 bits
Scan type                   : Progressive
Bits/(Pixel*Frame)          : 0.058
Stream size                 : 3.22 GiB (89%)
Writing library             : x264 core 148 r2744 b97ae06
Encoding settings           : cabac=1 / ref=3 / deblock=1:0:0 / analyse=0x3:0x113 / me=hex / subme=7 / psy=1 / psy_rd=1.00:0.00 / mixed_ref=1 / me_range=16 / chroma_me=1 / trellis=1 / 8x8dct=1 / cqm=0 / deadzone=21,11 / fast_pskip=1 / chroma_qp_offset=-2 / threads=25 / lookahead_threads=4 / sliced_threads=0 / nr=0 / decimate=1 / interlaced=0 / bluray_compat=0 / constrained_intra=0 / bframes=3 / b_pyramid=2 / b_adapt=1 / b_bias=0 / direct=1 / weightb=1 / open_gop=0 / weightp=2 / keyint=300 / keyint_min=29 / scenecut=40 / intra_refresh=0 / rc_lookahead=40 / rc=2pass / mbtree=1 / bitrate=2734 / ratetol=1.0 / qcomp=0.60 / qpmin=0 / qpmax=69 / qpstep=4 / cplxblur=20.0 / qblur=0.5 / vbv_maxrate=62500 / vbv_bufsize=78125 / nal_hrd=none / filler=0 / ip_ratio=1.40 / aq=1:1.00
Language                    : Tamil
Default                     : Yes
Forced                      : No

Audio
ID                          : 2
Format                      : AC-3
Format/Info                 : Audio Coding 3
Format settings, Endianness : Big
Codec ID                    : A_AC3
Duration                    : 2 h 48 min
Bit rate mode               : Constant
Bit rate                    : 320 kb/s
Channel(s)                  : 6 channels
Channel positions           : Front: L C R, Side: L R, LFE
Sampling rate               : 48.0 kHz
Frame rate                  : 31.250 FPS (1536 SPF)
Bit depth                   : 16 bits
Compression mode            : Lossy
Stream size                 : 386 MiB (10%)
Language                    : Tamil
Service kind                : Complete Main
Default                     : Yes
Forced                      : No

Text
ID                          : 3
Format                      : UTF-8
Codec ID                    : S_TEXT/UTF8
Codec ID/Info               : UTF-8 Plain Text
Duration                    : 2 h 44 min
Bit rate                    : 73 b/s
Count of elements           : 2937
Stream size                 : 87.9 KiB (0%)
Language                    : English
Default                     : Yes
Forced                      : No



Imaikkaa Nodigal (2018) Proper - Tamil - 1080p - HDRip - DD5.1 - x264 Eubs-MTRImaikkaa Nodigal (2018) Proper - Tamil - 1080p - HDRip - DD5.1 - x264 Eubs-MTRImaikkaa Nodigal (2018) Proper - Tamil - 1080p - HDRip - DD5.1 - x264 Eubs-MTRImaikkaa Nodigal (2018) Proper - Tamil - 1080p - HDRip - DD5.1 - x264 Eubs-MTRImaikkaa Nodigal (2018) Proper - Tamil - 1080p - HDRip - DD5.1 - x264 Eubs-MTRImaikkaa Nodigal (2018) Proper - Tamil - 1080p - HDRip - DD5.1 - x264 Eubs-MTR

SINGLE DIRECT FAST LINKS
http://www.heroupload.us/c6391ab123797470/Imaikkaa.Nodigal.2018.Tamil.1080p.Proper.HDRip.AC3.5.1.x264.ESubs-MTR.mkv


http://filefloater.com/2B06/Imaikkaa.Nodigal.2018.Tamil.1080p.Proper.HDRip.AC3.5.1.x264.ESubs-MTR.mkv

1GB LINKS

http://www.heroupload.us/8e1a4c34768bf982/Imaikkaa.Nodigal.2018.Tamil.1080p.Proper.HDRip.AC3.5.1.x264.ESubs-MTR.part1.rar
http://www.heroupload.us/73699a90dfef9997/Imaikkaa.Nodigal.2018.Tamil.1080p.Proper.HDRip.AC3.5.1.x264.ESubs-MTR.part2.rar
http://www.heroupload.us/d243d548a2445f3e/Imaikkaa.Nodigal.2018.Tamil.1080p.Proper.HDRip.AC3.5.1.x264.ESubs-MTR.part3.rar
http://www.heroupload.us/e14f9d772fce793a/Imaikkaa.Nodigal.2018.Tamil.1080p.Proper.HDRip.AC3.5.1.x264.ESubs-MTR.part4.rar



http://filefloater.com/2B07/Imaikkaa.Nodigal.2018.Tamil.1080p.Proper.HDRip.AC3.5.1.x264.ESubs-MTR.part1.rar
http://filefloater.com/2B08/Imaikkaa.Nodigal.2018.Tamil.1080p.Proper.HDRip.AC3.5.1.x264.ESubs-MTR.part2.rar
http://filefloater.com/2B09/Imaikkaa.Nodigal.2018.Tamil.1080p.Proper.HDRip.AC3.5.1.x264.ESubs-MTR.part3.rar
http://filefloater.com/2B0a/Imaikkaa.Nodigal.2018.Tamil.1080p.Proper.HDRip.AC3.5.1.x264.ESubs-MTR.part4.rar



Buy Premium From My Links & Support Me

Add a comment

Name:* E-Mail:*
Bold Italic Underline Strike | Align left Center Align right | Insert smilies Insert link URLInsert protected URL Select color | Add Hidden Text Insert Quote Convert selected text from selection to Cyrillic (Russian) alphabet Insert spoiler
Enter the code below: *