Rss
Calendar
«    December 2018    »
MonTueWedThuFriSatSun
 12
3456789
10111213141516
17181920212223
24252627282930
31 
Friends of the site
» » Torchlight (2018) Tamil - 1080p - WEB-HDp - AVC - DD5.1-MTR
  • Author: wroser
  • |
  • Comments: 1
  • |
  • Views: 65
Torchlight (2018) Tamil - 1080p - WEB-HDp - AVC - DD5.1-MTR





Format                      : MPEG-4
Format profile              : Base Media
Codec ID                    : isom (isom/iso2/avc1/mp41)
File size                   : 2.26 GiB
Duration                    : 1 h 59 min
Overall bit rate            : 2 716 kb/s
Writing application         : Lavf56.25.101

Video
ID                          : 1
Format                      : AVC
Format/Info                 : Advanced Video Codec
Format profile              : High@L4
Format settings, CABAC      : Yes
Format settings, RefFrames  : 2 frames
Codec ID                    : avc1
Codec ID/Info               : Advanced Video Coding
Duration                    : 1 h 59 min
Bit rate                    : 2 352 kb/s
Width                       : 1 920 pixels
Height                      : 1 080 pixels
Display aspect ratio        : 16:9
Frame rate mode             : Variable
Frame rate                  : 24.000 FPS
Minimum frame rate          : 23.810 FPS
Maximum frame rate          : 24.390 FPS
Color space                 : YUV
Chroma subsampling          : 4:2:0
Bit depth                   : 8 bits
Scan type                   : Progressive
Bits/(Pixel*Frame)          : 0.047
Stream size                 : 1.96 GiB (87%)
Language                    : Tamil
Color range                 : Limited
Color primaries             : BT.709
Transfer characteristics    : BT.709
Matrix coefficients         : BT.709

Audio #1
ID                          : 2
Format                      : AC-3
Format/Info                 : Audio Coding 3
Format settings, Endianness : Big
Codec ID                    : ac-3
Duration                    : 1 h 59 min
Bit rate mode               : Constant
Bit rate                    : 224 kb/s
Channel(s)                  : 6 channels
Channel positions           : Front: L C R, Side: L R, LFE
Sampling rate               : 44.1 kHz
Frame rate                  : 28.711 FPS (1536 SPF)
Bit depth                   : 16 bits
Compression mode            : Lossy
Stream size                 : 191 MiB (8%)
Language                    : Tamil
Service kind                : Complete Main
Default                     : Yes
Alternate group             : 1

Audio #2
ID                          : 3
Format                      : AAC
Format/Info                 : Advanced Audio Codec
Format profile              : LC
Codec ID                    : 40
Duration                    : 1 h 59 min
Bit rate mode               : Constant
Bit rate                    : 128 kb/s
Channel(s)                  : 2 channels
Channel positions           : Front: L R
Sampling rate               : 44.1 kHz
Frame rate                  : 43.066 FPS (1024 SPF)
Compression mode            : Lossy
Stream size                 : 109 MiB (5%)
Language                    : Tamil
Default                     : No
Alternate group             : 1



Torchlight (2018) Tamil - 1080p - WEB-HDp - AVC - DD5.1-MTRTorchlight (2018) Tamil - 1080p - WEB-HDp - AVC - DD5.1-MTRTorchlight (2018) Tamil - 1080p - WEB-HDp - AVC - DD5.1-MTRTorchlight (2018) Tamil - 1080p - WEB-HDp - AVC - DD5.1-MTRTorchlight (2018) Tamil - 1080p - WEB-HDp - AVC - DD5.1-MTRTorchlight (2018) Tamil - 1080p - WEB-HDp - AVC - DD5.1-MTR


SINGLE DIRECT FAST LINKS
http://www.heroupload.us/d10bcc12addcf648/Torchlight.2018.Tamil.1080p.HD-AVC.MP4.AC3.5.1-MTR.mp4


http://filefloater.com/2B0f/Torchlight.2018.Tamil.1080p.HD-AVC.MP4.AC3.5.1-MTR.mp4

700MB LINKS

http://www.heroupload.us/846c84dd4c3f00e8/Torchlight.2018.Tamil.1080p.HD-AVC.MP4.AC3.5.1-MTR.part1.rar
http://www.heroupload.us/8545d69546af148a/Torchlight.2018.Tamil.1080p.HD-AVC.MP4.AC3.5.1-MTR.part2.rar
http://www.heroupload.us/6be4c592c86ca87f/Torchlight.2018.Tamil.1080p.HD-AVC.MP4.AC3.5.1-MTR.part3.rar
http://www.heroupload.us/d427e3e312274060/Torchlight.2018.Tamil.1080p.HD-AVC.MP4.AC3.5.1-MTR.part4.rar



http://filefloater.com/2B0g/Torchlight.2018.Tamil.1080p.HD-AVC.MP4.AC3.5.1-MTR.part1.rar
http://filefloater.com/2B0h/Torchlight.2018.Tamil.1080p.HD-AVC.MP4.AC3.5.1-MTR.part2.rar
http://filefloater.com/1KYu/Torchlight.2018.Tamil.1080p.HD-AVC.MP4.AC3.5.1-MTR.part3.rar
http://filefloater.com/2B0j/Torchlight.2018.Tamil.1080p.HD-AVC.MP4.AC3.5.1-MTR.part4.rar


Buy Premium From My Links & Support Me

Add a comment

Name:* E-Mail:*
Bold Italic Underline Strike | Align left Center Align right | Insert smilies Insert link URLInsert protected URL Select color | Add Hidden Text Insert Quote Convert selected text from selection to Cyrillic (Russian) alphabet Insert spoiler
Enter the code below: *