Rss
Calendar
«    November 2018    »
MonTueWedThuFriSatSun
 1234
567891011
12131415161718
19202122232425
2627282930 
Friends of the site
» » U Turn (2018) Telugu 1080p H264 DDP 5.1 - NbT
  • Author: wroser
  • |
  • Comments: 0
  • |
  • Views: 35
U Turn (2018) Telugu 1080p H264 DDP 5.1 - NbT





Format                      : Matroska
Format version              : Version 4
File size                   : 5.75 GiB
Duration                    : 2 h 6 min
Overall bit rate mode       : Variable
Overall bit rate            : 6 495 kb/s
Encoded date                : UTC 2018-10-12 19:06:01
Writing application         : mkvmerge v27.0.0 ('Metropolis') 64-bit
Writing library             : libebml v1.3.6 + libmatroska v1.4.9
Cover                       : Yes
Attachments                 : Cover.jpg

Video
ID                          : 1
Format                      : AVC
Format/Info                 : Advanced Video Codec
Format profile              : High@L4
Format settings             : CABAC / 4 Ref Frames
Format settings, CABAC      : Yes
Format settings, ReFrames   : 4 frames
Codec ID                    : V_MPEG4/ISO/AVC
Duration                    : 2 h 6 min
Bit rate mode               : Variable
Bit rate                    : 5 853 kb/s
Maximum bit rate            : 15.0 Mb/s
Width                       : 1 920 pixels
Height                      : 816 pixels
Display aspect ratio        : 2.35:1
Frame rate mode             : Constant
Frame rate                  : 24.000 FPS
Color space                 : YUV
Chroma subsampling          : 4:2:0
Bit depth                   : 8 bits
Scan type                   : Progressive
Bits/(Pixel*Frame)          : 0.156
Stream size                 : 5.18 GiB (90%)
Default                     : Yes
Forced                      : No
Color range                 : Limited
Color primaries             : BT.709
Transfer characteristics    : BT.709
Matrix coefficients         : BT.709

Audio
ID                          : 2
Format                      : E-AC-3
Format/Info                 : Enhanced AC-3
Commercial name             : Dolby Digital Plus
Codec ID                    : A_EAC3
Duration                    : 2 h 6 min
Bit rate mode               : Constant
Bit rate                    : 640 kb/s
Channel(s)                  : 6 channels
Channel layout              : L R C LFE Ls Rs
Sampling rate               : 48.0 kHz
Frame rate                  : 31.250 FPS (1536 SPF)
Compression mode            : Lossy
Stream size                 : 580 MiB (10%)
Title                       : Telugu
Language                    : Telugu
Service kind                : Complete Main
Default                     : No
Forced                      : No

Text
ID                          : 3
Format                      : UTF-8
Codec ID                    : S_TEXT/UTF8
Codec ID/Info               : UTF-8 Plain Text
Duration                    : 2 h 1 min
Bit rate                    : 66 b/s
Count of elements           : 1951
Stream size                 : 58.8 KiB (0%)
Title                       : English [SDH]
Language                    : English
Default                     : No
Forced                      : No

Menu
00:00:00.000                : en:Studio Logos
00:00:56.000                : en:Title Sequence
00:01:13.000                : en:Scene 3
00:12:26.000                : en:Scene 4
00:23:52.000                : en:Scene 5
00:37:39.000                : en:Scene 6
00:48:36.000                : en:Scene 7
00:53:51.000                : en:Scene 8
01:00:33.000                : en:Scene 9
01:10:04.000                : en:Scene 10
01:19:53.000                : en:Scene 11
01:29:33.000                : en:Scene 12
01:41:59.000                : en:Scene 13
01:55:06.000                : en:Scene 14
02:05:27.000                : en:End Credits


U Turn (2018) Telugu 1080p H264 DDP 5.1 - NbTU Turn (2018) Telugu 1080p H264 DDP 5.1 - NbTU Turn (2018) Telugu 1080p H264 DDP 5.1 - NbTU Turn (2018) Telugu 1080p H264 DDP 5.1 - NbTU Turn (2018) Telugu 1080p H264 DDP 5.1 - NbTU Turn (2018) Telugu 1080p H264 DDP 5.1 - NbT

SINGLE DIRECT FAST LINKS

http://www.heroupload.us/ede02edd339c684e/U.Turn.2018.Telugu.1080p.AMZN.H264.DDP5.1-NbT.mkv


1GB LINKS

http://www.heroupload.us/3871af15d5b18dd8/U.Turn.2018.Telugu.1080p.AMZN.H264.DDP5.1-NbT.part1.rar
http://www.heroupload.us/09c6badb6d102c0e/U.Turn.2018.Telugu.1080p.AMZN.H264.DDP5.1-NbT.part2.rar
http://www.heroupload.us/3b34c9394abe7aa6/U.Turn.2018.Telugu.1080p.AMZN.H264.DDP5.1-NbT.part3.rar
http://www.heroupload.us/15e89d88ce5ea8c0/U.Turn.2018.Telugu.1080p.AMZN.H264.DDP5.1-NbT.part4.rar
http://www.heroupload.us/571f68b7d03b19c6/U.Turn.2018.Telugu.1080p.AMZN.H264.DDP5.1-NbT.part5.rar
http://www.heroupload.us/4153955ee1e34f47/U.Turn.2018.Telugu.1080p.AMZN.H264.DDP5.1-NbT.part6.rar



http://filefloater.com/312z/U.Turn.2018.Telugu.1080p.AMZN.H264.DDP5.1-NbT.part1.rar
http://filefloater.com/312A/U.Turn.2018.Telugu.1080p.AMZN.H264.DDP5.1-NbT.part2.rar
http://filefloater.com/312B/U.Turn.2018.Telugu.1080p.AMZN.H264.DDP5.1-NbT.part3.rar
http://filefloater.com/312C/U.Turn.2018.Telugu.1080p.AMZN.H264.DDP5.1-NbT.part4.rar
http://filefloater.com/312D/U.Turn.2018.Telugu.1080p.AMZN.H264.DDP5.1-NbT.part5.rar
http://filefloater.com/312E/U.Turn.2018.Telugu.1080p.AMZN.H264.DDP5.1-NbT.part6.rar






Buy Premium From My Links & Support Me

Add a comment

Name:* E-Mail:*
Bold Italic Underline Strike | Align left Center Align right | Insert smilies Insert link URLInsert protected URL Select color | Add Hidden Text Insert Quote Convert selected text from selection to Cyrillic (Russian) alphabet Insert spoiler
Enter the code below: *