Rss
Calendar
«    December 2018    »
MonTueWedThuFriSatSun
 12
3456789
10111213141516
17181920212223
24252627282930
31 
Friends of the site
» » Guru (2018) Hindi - 720p - WEB-HD - AVC - AAC-TeamTT Exclusive
  • Author: wroser
  • |
  • Comments: 1
  • |
  • Views: 89
Guru (2018) Hindi - 720p - WEB-HD - AVC - AAC-TeamTT Exclusive





Format                      : Matroska
Format version              : Version 4 / Version 2
File size                   : 1.35 GiB
Duration                    : 1 h 33 min
Overall bit rate            : 2 058 kb/s
Movie name                  : Tellytorrent.net
Encoded date                : UTC 2018-10-13 05:29:31
Writing application         : mkvmerge v27.0.0 ('Metropolis') 64-bit
Writing library             : libebml v1.3.6 + libmatroska v1.4.9

Video
ID                          : 1
Format                      : AVC
Format/Info                 : Advanced Video Codec
Format profile              : Main@L3.1
Format settings, CABAC      : Yes
Format settings, RefFrames  : 1 frame
Codec ID                    : V_MPEG4/ISO/AVC
Duration                    : 1 h 33 min
Bit rate mode               : Constant
Bit rate                    : 2 000 kb/s
Width                       : 1 280 pixels
Height                      : 720 pixels
Display aspect ratio        : 16:9
Frame rate mode             : Constant
Frame rate                  : 25.000 FPS
Color space                 : YUV
Chroma subsampling          : 4:2:0
Bit depth                   : 8 bits
Scan type                   : Progressive
Bits/(Pixel*Frame)          : 0.087
Stream size                 : 1.31 GiB (97%)
Default                     : Yes
Forced                      : No

Audio
ID                          : 2
Format                      : AAC
Format/Info                 : Advanced Audio Codec
Format profile              : LC
Codec ID                    : A_AAC
Duration                    : 1 h 33 min
Bit rate                    : 61.4 kb/s
Channel(s)                  : 2 channels
Channel positions           : Front: L R
Sampling rate               : 48.0 kHz
Frame rate                  : 46.875 FPS (1024 SPF)
Compression mode            : Lossy
Delay relative to video     : -33 ms
Stream size                 : 41.2 MiB (3%)
Default                     : Yes
Forced                      : No



Guru (2018) Hindi - 720p - WEB-HD - AVC - AAC-TeamTT ExclusiveGuru (2018) Hindi - 720p - WEB-HD - AVC - AAC-TeamTT ExclusiveGuru (2018) Hindi - 720p - WEB-HD - AVC - AAC-TeamTT ExclusiveGuru (2018) Hindi - 720p - WEB-HD - AVC - AAC-TeamTT ExclusiveGuru (2018) Hindi - 720p - WEB-HD - AVC - AAC-TeamTT ExclusiveGuru (2018) Hindi - 720p - WEB-HD - AVC - AAC-TeamTT ExclusiveGuru (2018) Hindi - 720p - WEB-HD - AVC - AAC-TeamTT ExclusiveGuru (2018) Hindi - 720p - WEB-HD - AVC - AAC-TeamTT Exclusive

SINGLE DIRECT FAST LINKS
http://www.heroupload.us/91eb7406c2bba15d/Guru.2018.Hindi.720p.WEBDL.AVC.AAC-TeamTT.Exclusive.mkv


http://filefloater.com/312F/Guru.2018.Hindi.720p.WEBDL.AVC.AAC-TeamTT.Exclusive.mkv





Buy Premium From My Links & Support Me

Add a comment

Name:* E-Mail:*
Bold Italic Underline Strike | Align left Center Align right | Insert smilies Insert link URLInsert protected URL Select color | Add Hidden Text Insert Quote Convert selected text from selection to Cyrillic (Russian) alphabet Insert spoiler
Enter the code below: *