Rss
Calendar
«    November 2018    »
MonTueWedThuFriSatSun
 1234
567891011
12131415161718
19202122232425
2627282930 
Friends of the site
» » Soorma (2018) 1080p WEB-DL H264 DDP 5.1 - NbT
  • Author: wroser
  • |
  • Comments: 0
  • |
  • Views: 34
Soorma (2018) 1080p WEB-DL H264 DDP 5.1 - NbT





Format version              : Version 4
File size                   : 5.47 GiB
Duration                    : 2 h 10 min
Overall bit rate mode       : Variable
Overall bit rate            : 5 990 kb/s
Writing application         : mkvmerge v27.0.0 ('Metropolis') 64-bit
Writing library             : libebml v1.3.6 + libmatroska v1.4.9
Cover                       : Yes
Attachments                 : Cover.jpg / Cover_thumb.jpg

Video
ID                          : 1
Format                      : AVC
Format/Info                 : Advanced Video Codec
Format profile              : Main@L4
Format settings             : CABAC / 3 Ref Frames
Format settings, CABAC      : Yes
Format settings, ReFrames   : 3 frames
Codec ID                    : V_MPEG4/ISO/AVC
Duration                    : 2 h 10 min
Bit rate mode               : Variable
Bit rate                    : 5 360 kb/s
Maximum bit rate            : 8 040 kb/s
Width                       : 1 920 pixels
Height                      : 1 080 pixels
Display aspect ratio        : 16:9
Frame rate mode             : Constant
Frame rate                  : 24.000 FPS
Color space                 : YUV
Chroma subsampling          : 4:2:0
Bit depth                   : 8 bits
Scan type                   : Progressive
Bits/(Pixel*Frame)          : 0.108
Stream size                 : 4.89 GiB (89%)
Language                    : Hindi
Default                     : Yes
Forced                      : No

Audio
ID                          : 2
Format                      : E-AC-3
Format/Info                 : Enhanced AC-3
Commercial name             : Dolby Digital Plus
Codec ID                    : A_EAC3
Duration                    : 2 h 10 min
Bit rate mode               : Constant
Bit rate                    : 640 kb/s
Channel(s)                  : 6 channels
Channel layout              : L R C LFE Ls Rs
Sampling rate               : 48.0 kHz
Frame rate                  : 31.250 FPS (1536 SPF)
Compression mode            : Lossy
Stream size                 : 599 MiB (11%)
Title                       : Hindi
Language                    : Hindi
Service kind                : Complete Main
Default                     : No
Forced                      : No

Text
ID                          : 3
Format                      : UTF-8
Codec ID                    : S_TEXT/UTF8
Codec ID/Info               : UTF-8 Plain Text
Duration                    : 2 h 10 min
Bit rate                    : 63 b/s
Count of elements           : 1805
Stream size                 : 60.2 KiB (0%)
Title                       : English [Full]
Language                    : English
Default                     : Yes
Forced                      : No

Soorma (2018) 1080p WEB-DL H264 DDP 5.1 - NbTSoorma (2018) 1080p WEB-DL H264 DDP 5.1 - NbTSoorma (2018) 1080p WEB-DL H264 DDP 5.1 - NbTSoorma (2018) 1080p WEB-DL H264 DDP 5.1 - NbTSoorma (2018) 1080p WEB-DL H264 DDP 5.1 - NbTSoorma (2018) 1080p WEB-DL H264 DDP 5.1 - NbT


SINGLE DIRECT FAST LINKS

http://www.heroupload.us/88d6951d45c3f0ec/Soorma.2018.Hindi.1080p.WEB-DL.H264.DDP5.1-NbT.mkv


1GB LINKS

http://www.heroupload.us/8968732e7429a5c0/Soorma.2018.Hindi.1080p.WEB-DL.H264.DDP5.1-NbT.part1.rar
http://www.heroupload.us/ba2570e22aec8f07/Soorma.2018.Hindi.1080p.WEB-DL.H264.DDP5.1-NbT.part2.rar
http://www.heroupload.us/12653c762d4afaea/Soorma.2018.Hindi.1080p.WEB-DL.H264.DDP5.1-NbT.part3.rar
http://www.heroupload.us/146b7b4eccd3efb3/Soorma.2018.Hindi.1080p.WEB-DL.H264.DDP5.1-NbT.part4.rar
http://www.heroupload.us/b574587a2605d809/Soorma.2018.Hindi.1080p.WEB-DL.H264.DDP5.1-NbT.part5.rar
http://www.heroupload.us/fe546136a4da8476/Soorma.2018.Hindi.1080p.WEB-DL.H264.DDP5.1-NbT.part6.rar


http://filefloater.com/1L04/Soorma.2018.Hindi.1080p.WEB-DL.H264.DDP5.1-NbT.part1.rar
http://filefloater.com/1L05/Soorma.2018.Hindi.1080p.WEB-DL.H264.DDP5.1-NbT.part2.rar
http://filefloater.com/1L06/Soorma.2018.Hindi.1080p.WEB-DL.H264.DDP5.1-NbT.part3.rar
http://filefloater.com/1L07/Soorma.2018.Hindi.1080p.WEB-DL.H264.DDP5.1-NbT.part4.rar
http://filefloater.com/1L08/Soorma.2018.Hindi.1080p.WEB-DL.H264.DDP5.1-NbT.part5.rar
http://filefloater.com/1L09/Soorma.2018.Hindi.1080p.WEB-DL.H264.DDP5.1-NbT.part6.rar



Buy Premium From My Links & Support Me

Add a comment

Name:* E-Mail:*
Bold Italic Underline Strike | Align left Center Align right | Insert smilies Insert link URLInsert protected URL Select color | Add Hidden Text Insert Quote Convert selected text from selection to Cyrillic (Russian) alphabet Insert spoiler
Enter the code below: *