Rss
Calendar
«    December 2018    »
MonTueWedThuFriSatSun
 12
3456789
10111213141516
17181920212223
24252627282930
31 
Friends of the site
» » Pariyerum Perumal (2018) Tamil Ultra HD 4K - Untouched - AVC - Dolby ® 5.1 - Esub-MTR
  • Author: wroser
  • |
  • Comments: 0
  • |
  • Views: 101
Pariyerum Perumal (2018) Tamil Ultra HD 4K - Untouched - AVC - Dolby ® 5.1 - Esub-MTR





Format                      : MPEG-4
Codec ID                    : M4V  (isom/avc1/mp42)
File size                   : 5.73 GiB
Duration                    : 2 h 26 min
Overall bit rate mode       : Variable
Overall bit rate            : 5 584 kb/s
Encoded date                : UTC 2018-10-24 10:42:43
Tagged date                 : UTC 2018-10-24 10:42:43

Video
ID                          : 1
Format                      : AVC
Format/Info                 : Advanced Video Codec
Format profile              : Main@L5.1
Format settings, CABAC      : Yes
Format settings, RefFrames  : 3 frames
Codec ID                    : avc1
Codec ID/Info               : Advanced Video Coding
Duration                    : 2 h 26 min
Bit rate mode               : Constant
Bit rate                    : 5 000 kb/s
Maximum bit rate            : 13.8 Mb/s
Width                       : 3 840 pixels
Height                      : 2 160 pixels
Display aspect ratio        : 16:9
Frame rate mode             : Constant
Frame rate                  : 25.000 FPS
Standard                    : PAL
Color space                 : YUV
Chroma subsampling          : 4:2:0
Bit depth                   : 8 bits
Scan type                   : Progressive
Bits/(Pixel*Frame)          : 0.024
Stream size                 : 5.13 GiB (90%)
Encoded date                : UTC 2018-10-24 10:42:43
Tagged date                 : UTC 2018-10-24 10:42:43
Color range                 : Limited
Color primaries             : BT.709
Transfer characteristics    : BT.709
Matrix coefficients         : BT.709

Audio #1
ID                          : 2
Format                      : AAC
Format/Info                 : Advanced Audio Codec
Format profile              : LC
Codec ID                    : 40
Duration                    : 2 h 26 min
Bit rate mode               : Variable
Bit rate                    : 128 kb/s
Maximum bit rate            : 133 kb/s
Channel(s)                  : 2 channels
Channel positions           : Front: L R
Sampling rate               : 48.0 kHz
Frame rate                  : 46.875 FPS (1024 SPF)
Compression mode            : Lossy
Stream size                 : 132 MiB (2%)
Encoded date                : UTC 2018-10-24 10:42:43
Tagged date                 : UTC 2018-10-24 10:42:43

Audio #2
ID                          : 3
Format                      : AC-3
Format/Info                 : Audio Coding 3
Format settings, Endianness : Big
Codec ID                    : ac-3
Duration                    : 2 h 26 min
Bit rate mode               : Constant
Bit rate                    : 448 kb/s
Channel(s)                  : 6 channels
Channel positions           : Front: L C R, Side: L R, LFE
Sampling rate               : 48.0 kHz
Frame rate                  : 31.250 FPS (1536 SPF)
Bit depth                   : 16 bits
Compression mode            : Lossy
Stream size                 : 471 MiB (8%)
Service kind                : Complete Main
Encoded date                : UTC 2018-10-24 10:42:43
Tagged date                 : UTC 2018-10-24 10:42:43



Pariyerum Perumal (2018) Tamil Ultra HD 4K - Untouched - AVC - Dolby ® 5.1 - Esub-MTRPariyerum Perumal (2018) Tamil Ultra HD 4K - Untouched - AVC - Dolby ® 5.1 - Esub-MTRPariyerum Perumal (2018) Tamil Ultra HD 4K - Untouched - AVC - Dolby ® 5.1 - Esub-MTR
Pariyerum Perumal (2018) Tamil Ultra HD 4K - Untouched - AVC - Dolby ® 5.1 - Esub-MTRPariyerum Perumal (2018) Tamil Ultra HD 4K - Untouched - AVC - Dolby ® 5.1 - Esub-MTRPariyerum Perumal (2018) Tamil Ultra HD 4K - Untouched - AVC - Dolby ® 5.1 - Esub-MTRPariyerum Perumal (2018) Tamil Ultra HD 4K - Untouched - AVC - Dolby ® 5.1 - Esub-MTR


SINGLE DIRECT FAST LINKS

http://www.heroupload.us/754ef5bde8802d8d/Pariyerum.Perumal.2018.4K.Untouched.UHD.MP4.ESubs.Tamil-MTR.mp4


1GB LINKS

http://www.heroupload.us/a98576c5d9213e37/Pariyerum.Perumal.2018.4K.Untouched.UHD.MP4.ESubs.Tamil-MTR.part1.rar
http://www.heroupload.us/35b4641494d9586a/Pariyerum.Perumal.2018.4K.Untouched.UHD.MP4.ESubs.Tamil-MTR.part2.rar
http://www.heroupload.us/523d77a4f357e98f/Pariyerum.Perumal.2018.4K.Untouched.UHD.MP4.ESubs.Tamil-MTR.part3.rar
http://www.heroupload.us/91dab56728dffef4/Pariyerum.Perumal.2018.4K.Untouched.UHD.MP4.ESubs.Tamil-MTR.part4.rar
http://www.heroupload.us/3d14557daf2341c4/Pariyerum.Perumal.2018.4K.Untouched.UHD.MP4.ESubs.Tamil-MTR.part5.rar
http://www.heroupload.us/9e89cc365544d077/Pariyerum.Perumal.2018.4K.Untouched.UHD.MP4.ESubs.Tamil-MTR.part6.rar
http://www.heroupload.us/675ce57d4afb06a1/Pariyerum.Perumal.2018.4K.Untouched.UHD.MP4.ESubs.Tamil-MTR.srt



http://filefloater.com/1L4B/Pariyerum.Perumal.2018.4K.Untouched.UHD.MP4.ESubs.Tamil-MTR.part1.rar
http://filefloater.com/1L4C/Pariyerum.Perumal.2018.4K.Untouched.UHD.MP4.ESubs.Tamil-MTR.part2.rar
http://filefloater.com/1L4D/Pariyerum.Perumal.2018.4K.Untouched.UHD.MP4.ESubs.Tamil-MTR.part3.rar
http://filefloater.com/1L4E/Pariyerum.Perumal.2018.4K.Untouched.UHD.MP4.ESubs.Tamil-MTR.part4.rar
http://filefloater.com/1L4F/Pariyerum.Perumal.2018.4K.Untouched.UHD.MP4.ESubs.Tamil-MTR.part5.rar
http://filefloater.com/1L4G/Pariyerum.Perumal.2018.4K.Untouched.UHD.MP4.ESubs.Tamil-MTR.part6.rar
http://filefloater.com/1L4H/Pariyerum.Perumal.2018.4K.Untouched.UHD.MP4.ESubs.Tamil-MTR.srt



Buy Premium From My Links & Support Me

Add a comment

Name:* E-Mail:*
Bold Italic Underline Strike | Align left Center Align right | Insert smilies Insert link URLInsert protected URL Select color | Add Hidden Text Insert Quote Convert selected text from selection to Cyrillic (Russian) alphabet Insert spoiler
Enter the code below: *