Rss
Calendar
«    December 2018    »
MonTueWedThuFriSatSun
 12
3456789
10111213141516
17181920212223
24252627282930
31 
Friends of the site
» » Saamy Square (2018) Tamil Ultra HD 4K - Untouched - AVC - Dolby ® 5.1 - Esubs-MTR
  • Author: wroser
  • |
  • Comments: 0
  • |
  • Views: 63
Saamy Square (2018) Tamil Ultra HD 4K - Untouched - AVC - Dolby ® 5.1 - Esubs-MTR





Format                      : MPEG-4
Codec ID                    : M4V  (isom/avc1/mp42)
File size                   : 5.81 GiB
Duration                    : 2 h 29 min
Overall bit rate mode       : Variable
Overall bit rate            : 5 584 kb/s
Encoded date                : UTC 2018-10-26 09:30:42
Tagged date                 : UTC 2018-10-26 09:30:42

Video
ID                          : 1
Format                      : AVC
Format/Info                 : Advanced Video Codec
Format profile              : Main@L5.1
Format settings, CABAC      : Yes
Format settings, RefFrames  : 3 frames
Format settings, GOP        : M=3, N=90
Codec ID                    : avc1
Codec ID/Info               : Advanced Video Coding
Duration                    : 2 h 29 min
Bit rate mode               : Constant
Bit rate                    : 5 000 kb/s
Maximum bit rate            : 12.6 Mb/s
Width                       : 3 840 pixels
Height                      : 2 160 pixels
Display aspect ratio        : 16:9
Frame rate mode             : Constant
Frame rate                  : 25.000 FPS
Standard                    : PAL
Color space                 : YUV
Chroma subsampling          : 4:2:0
Bit depth                   : 8 bits
Scan type                   : Progressive
Bits/(Pixel*Frame)          : 0.024
Stream size                 : 5.21 GiB (90%)
Encoded date                : UTC 2018-10-26 09:30:42
Tagged date                 : UTC 2018-10-26 09:30:42
Color range                 : Limited
Color primaries             : BT.709
Transfer characteristics    : BT.709
Matrix coefficients         : BT.709

Audio #1
ID                          : 2
Format                      : AAC
Format/Info                 : Advanced Audio Codec
Format profile              : LC
Codec ID                    : 40
Duration                    : 2 h 29 min
Bit rate mode               : Variable
Bit rate                    : 128 kb/s
Maximum bit rate            : 133 kb/s
Channel(s)                  : 2 channels
Channel positions           : Front: L R
Sampling rate               : 48.0 kHz
Frame rate                  : 46.875 FPS (1024 SPF)
Compression mode            : Lossy
Stream size                 : 134 MiB (2%)
Encoded date                : UTC 2018-10-26 09:30:42
Tagged date                 : UTC 2018-10-26 09:30:42

Audio #2
ID                          : 3
Format                      : AC-3
Format/Info                 : Audio Coding 3
Format settings, Endianness : Big
Codec ID                    : ac-3
Duration                    : 2 h 29 min
Bit rate mode               : Constant
Bit rate                    : 448 kb/s
Channel(s)                  : 6 channels
Channel positions           : Front: L C R, Side: L R, LFE
Sampling rate               : 48.0 kHz
Frame rate                  : 31.250 FPS (1536 SPF)
Bit depth                   : 16 bits
Compression mode            : Lossy
Stream size                 : 478 MiB (8%)
Service kind                : Complete Main
Encoded date                : UTC 2018-10-26 09:30:42
Tagged date                 : UTC 2018-10-26 09:30:42


Saamy Square (2018) Tamil Ultra HD 4K - Untouched - AVC - Dolby ® 5.1 - Esubs-MTRSaamy Square (2018) Tamil Ultra HD 4K - Untouched - AVC - Dolby ® 5.1 - Esubs-MTRSaamy Square (2018) Tamil Ultra HD 4K - Untouched - AVC - Dolby ® 5.1 - Esubs-MTRSaamy Square (2018) Tamil Ultra HD 4K - Untouched - AVC - Dolby ® 5.1 - Esubs-MTRSaamy Square (2018) Tamil Ultra HD 4K - Untouched - AVC - Dolby ® 5.1 - Esubs-MTR


SINGLE DIRECT FAST LINKS

http://www.heroupload.us/177cbb03c808c30a/Saamy.Square.2018.4K.Untouched.UHD.MP4.ESubs.Tamil-MTR.mp4


1GB LINKS


http://www.heroupload.us/32483b5a93a9a394/Saamy.Square.2018.4K.Untouched.UHD.MP4.ESubs.Tamil-MTR.part1.rar
http://www.heroupload.us/c87e76824bd7afa8/Saamy.Square.2018.4K.Untouched.UHD.MP4.ESubs.Tamil-MTR.part2.rar
http://www.heroupload.us/e9dd292dbb470eb5/Saamy.Square.2018.4K.Untouched.UHD.MP4.ESubs.Tamil-MTR.part3.rar
http://www.heroupload.us/5d4e03cc0d618883/Saamy.Square.2018.4K.Untouched.UHD.MP4.ESubs.Tamil-MTR.part4.rar
http://www.heroupload.us/482170dba1abdc65/Saamy.Square.2018.4K.Untouched.UHD.MP4.ESubs.Tamil-MTR.part5.rar
http://www.heroupload.us/15d0c9e45f1901d8/Saamy.Square.2018.4K.Untouched.UHD.MP4.ESubs.Tamil-MTR.part6.rar
http://www.heroupload.us/391176153b38085a/Saamy.Square.2018.4K.Untouched.UHD.MP4.ESubs.Tamil-MTR.srt



http://filefloater.com/V43/Saamy.Square.2018.4K.Untouched.UHD.MP4.ESubs.Tamil-MTR.part1.rar
http://filefloater.com/V44/Saamy.Square.2018.4K.Untouched.UHD.MP4.ESubs.Tamil-MTR.part2.rar
http://filefloater.com/V45/Saamy.Square.2018.4K.Untouched.UHD.MP4.ESubs.Tamil-MTR.part3.rar
http://filefloater.com/V46/Saamy.Square.2018.4K.Untouched.UHD.MP4.ESubs.Tamil-MTR.part4.rar
http://filefloater.com/V47/Saamy.Square.2018.4K.Untouched.UHD.MP4.ESubs.Tamil-MTR.part5.rar
http://filefloater.com/V48/Saamy.Square.2018.4K.Untouched.UHD.MP4.ESubs.Tamil-MTR.part6.rar
http://filefloater.com/V49/Saamy.Square.2018.4K.Untouched.UHD.MP4.ESubs.Tamil-MTR.srt


Buy Premium From My Links & Support Me

Add a comment

Name:* E-Mail:*
Bold Italic Underline Strike | Align left Center Align right | Insert smilies Insert link URLInsert protected URL Select color | Add Hidden Text Insert Quote Convert selected text from selection to Cyrillic (Russian) alphabet Insert spoiler
Enter the code below: *