Rss
Calendar
«    December 2018    »
MonTueWedThuFriSatSun
 12
3456789
10111213141516
17181920212223
24252627282930
31 
Friends of the site
» » Hotel Transylvania 3 (2018) 1080p BluRay x264 DD5.1 [Dual Audio][Hindi+Tamil+English]
  • Author: wroser
  • |
  • Comments: 0
  • |
  • Views: 96
Hotel Transylvania 3 (2018) 1080p BluRay x264 DD5.1 [Dual Audio][Hindi+Tamil+English]





Format                      : Matroska
Format version              : Version 4 / Version 2
File size                   : 2.49 GiB
Duration                    : 1 h 37 min
Overall bit rate mode       : Variable
Overall bit rate            : 3 661 kb/s
Encoded date                : UTC 2018-10-27 16:14:19
Writing application         : mkvmerge v7.1.0 ('Good Love') 32bit built on Jul 27 2014 12:59:18
Writing library             : libebml v1.3.0 + libmatroska v1.4.1

Video
ID                          : 1
Format                      : AVC
Format/Info                 : Advanced Video Codec
Format profile              : High@L4
Format settings, CABAC      : Yes
Format settings, RefFrames  : 4 frames
Codec ID                    : V_MPEG4/ISO/AVC
Duration                    : 1 h 37 min
Bit rate                    : 2 278 kb/s
Width                       : 1 920 pixels
Height                      : 1 040 pixels
Display aspect ratio        : 1.85:1
Frame rate mode             : Constant
Frame rate                  : 23.976 (24000/1001) FPS
Color space                 : YUV
Chroma subsampling          : 4:2:0
Bit depth                   : 8 bits
Scan type                   : Progressive
Bits/(Pixel*Frame)          : 0.048
Stream size                 : 1.55 GiB (62%)
Writing library             : x264 core 155 r2901 7d0ff22
Encoding settings           : cabac=1 / ref=3 / deblock=1:0:0 / analyse=0x3:0x113 / me=hex / subme=7 / psy=1 / psy_rd=1.00:0.00 / mixed_ref=1 / me_range=16 / chroma_me=1 / trellis=1 / 8x8dct=1 / cqm=0 / deadzone=21,11 / fast_pskip=1 / chroma_qp_offset=-2 / threads=32 / lookahead_threads=5 / sliced_threads=0 / nr=0 / decimate=1 / interlaced=0 / bluray_compat=0 / constrained_intra=0 / bframes=3 / b_pyramid=2 / b_adapt=1 / b_bias=0 / direct=1 / weightb=1 / open_gop=0 / weightp=2 / keyint=240 / keyint_min=23 / scenecut=40 / intra_refresh=0 / rc_lookahead=40 / rc=2pass / mbtree=1 / bitrate=2278 / ratetol=1.0 / qcomp=0.60 / qpmin=0 / qpmax=69 / qpstep=4 / cplxblur=20.0 / qblur=0.5 / ip_ratio=1.40 / aq=1:1.00
Language                    : English
Default                     : Yes
Forced                      : No

Audio #1
ID                          : 2
Format                      : AC-3
Format/Info                 : Audio Coding 3
Format settings, Endianness : Big
Codec ID                    : A_AC3
Duration                    : 1 h 37 min
Bit rate mode               : Constant
Bit rate                    : 640 kb/s
Channel(s)                  : 6 channels
Channel positions           : Front: L C R, Side: L R, LFE
Sampling rate               : 48.0 kHz
Frame rate                  : 31.250 FPS (1536 SPF)
Bit depth                   : 16 bits
Compression mode            : Lossy
Stream size                 : 446 MiB (17%)
Language                    : Tamil
Service kind                : Complete Main
Default                     : Yes
Forced                      : No

Audio #2
ID                          : 3
Format                      : AC-3
Format/Info                 : Audio Coding 3
Format settings, Endianness : Big
Codec ID                    : A_AC3
Duration                    : 1 h 37 min
Bit rate mode               : Constant
Bit rate                    : 640 kb/s
Channel(s)                  : 6 channels
Channel positions           : Front: L C R, Side: L R, LFE
Sampling rate               : 48.0 kHz
Frame rate                  : 31.250 FPS (1536 SPF)
Bit depth                   : 16 bits
Compression mode            : Lossy
Stream size                 : 446 MiB (17%)
Language                    : Hindi
Service kind                : Complete Main
Default                     : No
Forced                      : No

Audio #3
ID                          : 4
Format                      : MPEG Audio
Format version              : Version 1
Format profile              : Layer 3
Mode                        : Joint stereo
Mode extension              : MS Stereo
Codec ID                    : A_MPEG/L3
Codec ID/Hint               : MP3
Duration                    : 1 h 37 min
Bit rate mode               : Variable
Bit rate                    : 102 kb/s
Nominal bit rate            : 128 kb/s
Channel(s)                  : 2 channels
Sampling rate               : 48.0 kHz
Frame rate                  : 41.667 FPS (1152 SPF)
Compression mode            : Lossy
Stream size                 : 71.0 MiB (3%)
Writing library             : LAME3.99r
Encoding settings           : -m j -V 4 -q 3 -lowpass 17 --abr 128
Language                    : English
Default                     : No
Forced                      : No

Text #1
ID                          : 5
Format                      : UTF-8
Codec ID                    : S_TEXT/UTF8
Codec ID/Info               : UTF-8 Plain Text
Duration                    : 1 h 30 min
Bit rate                    : 63 b/s
Count of elements           : 1623
Stream size                 : 41.9 KiB (0%)
Language                    : English
Default                     : Yes
Forced                      : No

Text #2
ID                          : 6
Format                      : UTF-8
Codec ID                    : S_TEXT/UTF8
Codec ID/Info               : UTF-8 Plain Text
Duration                    : 1 h 30 min
Bit rate                    : 124 b/s
Count of elements           : 1817
Stream size                 : 82.7 KiB (0%)
Language                    : English
Default                     : No
Forced                      : No



Hotel Transylvania 3 (2018) 1080p BluRay x264 DD5.1 [Dual Audio][Hindi+Tamil+English]Hotel Transylvania 3 (2018) 1080p BluRay x264 DD5.1 [Dual Audio][Hindi+Tamil+English]Hotel Transylvania 3 (2018) 1080p BluRay x264 DD5.1 [Dual Audio][Hindi+Tamil+English]Hotel Transylvania 3 (2018) 1080p BluRay x264 DD5.1 [Dual Audio][Hindi+Tamil+English]Hotel Transylvania 3 (2018) 1080p BluRay x264 DD5.1 [Dual Audio][Hindi+Tamil+English]
SINGLE DIRECT FAST LINKS
http://www.heroupload.us/91826e2ddba79919/Hotel.Transylvania.3.2018.BluRay.1080p.DD5.1.Tamil+Hindi+English.mkv


http://filefloater.com/V4t/Hotel.Transylvania.3.2018.BluRay.1080p.DD5.1.Tamil+Hindi+English.mkv

700MB LINKS

http://www.heroupload.us/20e4918355c1ca99/Hotel.Transylvania.3.2018.BluRay.1080p.DD5.1.Tamil+Hindi+English.part1.rar
http://www.heroupload.us/42c3776e2c30d255/Hotel.Transylvania.3.2018.BluRay.1080p.DD5.1.Tamil+Hindi+English.part2.rar
http://www.heroupload.us/0dc3a509c5b118f1/Hotel.Transylvania.3.2018.BluRay.1080p.DD5.1.Tamil+Hindi+English.part3.rar
http://www.heroupload.us/b969956cd79dae45/Hotel.Transylvania.3.2018.BluRay.1080p.DD5.1.Tamil+Hindi+English.part4.rar



http://filefloater.com/V4u/Hotel.Transylvania.3.2018.BluRay.1080p.DD5.1.Tamil+Hindi+English.part1.rar
http://filefloater.com/V4v/Hotel.Transylvania.3.2018.BluRay.1080p.DD5.1.Tamil+Hindi+English.part2.rar
http://filefloater.com/V4w/Hotel.Transylvania.3.2018.BluRay.1080p.DD5.1.Tamil+Hindi+English.part3.rar
http://filefloater.com/V4x/Hotel.Transylvania.3.2018.BluRay.1080p.DD5.1.Tamil+Hindi+English.part4.rar


Buy Premium From My Links & Support Me

Add a comment

Name:* E-Mail:*
Bold Italic Underline Strike | Align left Center Align right | Insert smilies Insert link URLInsert protected URL Select color | Add Hidden Text Insert Quote Convert selected text from selection to Cyrillic (Russian) alphabet Insert spoiler
Enter the code below: *