Rss
Calendar
«    December 2018    »
MonTueWedThuFriSatSun
 12
3456789
10111213141516
17181920212223
24252627282930
31 
Friends of the site
» » Raatchasan (2018) Tamil Ultra HD 4K - Untouched - AVC - Dolby ® 5.1 - Esubs-MTR
  • Author: wroser
  • |
  • Comments: 0
  • |
  • Views: 78
Raatchasan (2018) Tamil Ultra HD 4K - Untouched - AVC - Dolby ® 5.1 - Esubs-MTR





Format                      : MPEG-4
Codec ID                    : M4V  (isom/avc1/mp42)
File size                   : 5.68 GiB
Duration                    : 2 h 25 min
Overall bit rate mode       : Variable
Overall bit rate            : 5 584 kb/s
Encoded date                : UTC 2018-10-31 09:32:59
Tagged date                 : UTC 2018-10-31 09:32:59

Video
ID                          : 1
Format                      : AVC
Format/Info                 : Advanced Video Codec
Format profile              : Main@L5.1
Format settings, CABAC      : Yes
Format settings, RefFrames  : 3 frames
Codec ID                    : avc1
Codec ID/Info               : Advanced Video Coding
Duration                    : 2 h 25 min
Bit rate mode               : Constant
Bit rate                    : 5 000 kb/s
Maximum bit rate            : 12.1 Mb/s
Width                       : 3 840 pixels
Height                      : 2 160 pixels
Display aspect ratio        : 16:9
Frame rate mode             : Constant
Frame rate                  : 25.000 FPS
Standard                    : PAL
Color space                 : YUV
Chroma subsampling          : 4:2:0
Bit depth                   : 8 bits
Scan type                   : Progressive
Bits/(Pixel*Frame)          : 0.024
Stream size                 : 5.08 GiB (90%)
Encoded date                : UTC 2018-10-31 09:32:59
Tagged date                 : UTC 2018-10-31 09:32:59
Color range                 : Limited
Color primaries             : BT.709
Transfer characteristics    : BT.709
Matrix coefficients         : BT.709

Audio #1
ID                          : 2
Format                      : AAC
Format/Info                 : Advanced Audio Codec
Format profile              : LC
Codec ID                    : 40
Duration                    : 2 h 25 min
Bit rate mode               : Variable
Bit rate                    : 128 kb/s
Maximum bit rate            : 133 kb/s
Channel(s)                  : 2 channels
Channel positions           : Front: L R
Sampling rate               : 48.0 kHz
Frame rate                  : 46.875 FPS (1024 SPF)
Compression mode            : Lossy
Stream size                 : 131 MiB (2%)
Encoded date                : UTC 2018-10-31 09:32:59
Tagged date                 : UTC 2018-10-31 09:32:59

Audio #2
ID                          : 3
Format                      : AC-3
Format/Info                 : Audio Coding 3
Format settings, Endianness : Big
Codec ID                    : ac-3
Duration                    : 2 h 25 min
Bit rate mode               : Constant
Bit rate                    : 448 kb/s
Channel(s)                  : 6 channels
Channel positions           : Front: L C R, Side: L R, LFE
Sampling rate               : 48.0 kHz
Frame rate                  : 31.250 FPS (1536 SPF)
Bit depth                   : 16 bits
Compression mode            : Lossy
Stream size                 : 466 MiB (8%)
Service kind                : Complete Main
Encoded date                : UTC 2018-10-31 09:32:59
Tagged date                 : UTC 2018-10-31 09:32:59



Raatchasan (2018) Tamil Ultra HD 4K - Untouched - AVC - Dolby ® 5.1 - Esubs-MTRRaatchasan (2018) Tamil Ultra HD 4K - Untouched - AVC - Dolby ® 5.1 - Esubs-MTRRaatchasan (2018) Tamil Ultra HD 4K - Untouched - AVC - Dolby ® 5.1 - Esubs-MTRRaatchasan (2018) Tamil Ultra HD 4K - Untouched - AVC - Dolby ® 5.1 - Esubs-MTRRaatchasan (2018) Tamil Ultra HD 4K - Untouched - AVC - Dolby ® 5.1 - Esubs-MTRRaatchasan (2018) Tamil Ultra HD 4K - Untouched - AVC - Dolby ® 5.1 - Esubs-MTRRaatchasan (2018) Tamil Ultra HD 4K - Untouched - AVC - Dolby ® 5.1 - Esubs-MTR


SINGLE DIRECT FAST LINKS

http://www.heroupload.us/ec502a958d9bc170/Raatchasan.2018.4K.Untouched.UHD.MP4.ESubs.Tamil-MTR.mp4


1GB LINKS

http://www.heroupload.us/f0caaeaca3ffe67c/Raatchasan.2018.4K.Untouched.UHD.MP4.ESubs.Tamil-MTR.part1.rar
http://www.heroupload.us/f1cd2323d98b99af/Raatchasan.2018.4K.Untouched.UHD.MP4.ESubs.Tamil-MTR.part2.rar
http://www.heroupload.us/e3c87f1ba724c193/Raatchasan.2018.4K.Untouched.UHD.MP4.ESubs.Tamil-MTR.part3.rar
http://www.heroupload.us/b35223e337f4f601/Raatchasan.2018.4K.Untouched.UHD.MP4.ESubs.Tamil-MTR.part4.rar
http://www.heroupload.us/bccc1d721fb5738c/Raatchasan.2018.4K.Untouched.UHD.MP4.ESubs.Tamil-MTR.part5.rar
http://www.heroupload.us/091b235efaddf014/Raatchasan.2018.4K.Untouched.UHD.MP4.ESubs.Tamil-MTR.part6.rar
http://www.heroupload.us/be13f89082078589/Raatchasan.2018.4K.Untouched.UHD.MP4.ESubs.Tamil-MTR.srt



http://filefloater.com/1L7w/Raatchasan.2018.4K.Untouched.UHD.MP4.ESubs.Tamil-MTR.part1.rar
http://filefloater.com/1L7x/Raatchasan.2018.4K.Untouched.UHD.MP4.ESubs.Tamil-MTR.part2.rar
http://filefloater.com/1L7y/Raatchasan.2018.4K.Untouched.UHD.MP4.ESubs.Tamil-MTR.part3.rar
http://filefloater.com/1L7z/Raatchasan.2018.4K.Untouched.UHD.MP4.ESubs.Tamil-MTR.part4.rar
http://filefloater.com/1L7A/Raatchasan.2018.4K.Untouched.UHD.MP4.ESubs.Tamil-MTR.part5.rar
http://filefloater.com/1L7B/Raatchasan.2018.4K.Untouched.UHD.MP4.ESubs.Tamil-MTR.part6.rar
http://filefloater.com/1L7C/Raatchasan.2018.4K.Untouched.UHD.MP4.ESubs.Tamil-MTR.srt


Buy Premium From My Links & Support Me

Add a comment

Name:* E-Mail:*
Bold Italic Underline Strike | Align left Center Align right | Insert smilies Insert link URLInsert protected URL Select color | Add Hidden Text Insert Quote Convert selected text from selection to Cyrillic (Russian) alphabet Insert spoiler
Enter the code below: *