Rss
Calendar
«    December 2018    »
MonTueWedThuFriSatSun
 12
3456789
10111213141516
17181920212223
24252627282930
31 
Friends of the site
» » Geetha Govindam (2018) Telugu - 1080p - HDTV - UNTOUCHED - AVC - AAC-TMV
  • Author: wroser
  • |
  • Comments: 0
  • |
  • Views: 86
Geetha Govindam (2018) Telugu - 1080p - HDTV - UNTOUCHED - AVC - AAC-TMV





Format                      : MPEG-4
Format profile              : Base Media
Codec ID                    : isom (isom/iso2/mp41)
File size                   : 4.93 GiB
Duration                    : 2 h 13 min
Overall bit rate mode       : Variable
Overall bit rate            : 5 270 kb/s
Writing application         : Lavf57.71.100

Video
ID                          : 1
Format                      : MPEG-4 Visual
Format profile              : Simple@L1
Format settings, BVOP       : No
Format settings, QPel       : No
Format settings, GMC        : No warppoints
Format settings, Matrix     : Default (H.263)
Codec ID                    : 20
Duration                    : 2 h 13 min
Bit rate mode               : Variable
Bit rate                    : 5 133 kb/s
Maximum bit rate            : 9 000 kb/s
Width                       : 1 920 pixels
Height                      : 1 080 pixels
Display aspect ratio        : 16:9
Frame rate mode             : Constant
Frame rate                  : 25.000 FPS
Color space                 : YUV
Chroma subsampling          : 4:2:0
Bit depth                   : 8 bits
Scan type                   : Progressive
Compression mode            : Lossy
Bits/(Pixel*Frame)          : 0.099
Stream size                 : 4.80 GiB (97%)
Writing library             : Lavc57.89.100

Audio
ID                          : 2
Format                      : AAC
Format/Info                 : Advanced Audio Codec
Format profile              : LC
Codec ID                    : 40
Duration                    : 2 h 13 min
Bit rate mode               : Constant
Bit rate                    : 132 kb/s
Channel(s)                  : 2 channels
Channel positions           : Front: L R
Sampling rate               : 44.1 kHz
Frame rate                  : 43.066 FPS (1024 SPF)
Compression mode            : Lossy
Stream size                 : 125 MiB (2%)
Default                     : Yes
Alternate group             : 1



Geetha Govindam (2018) Telugu - 1080p - HDTV - UNTOUCHED - AVC - AAC-TMVGeetha Govindam (2018) Telugu - 1080p - HDTV - UNTOUCHED - AVC - AAC-TMVGeetha Govindam (2018) Telugu - 1080p - HDTV - UNTOUCHED - AVC - AAC-TMVGeetha Govindam (2018) Telugu - 1080p - HDTV - UNTOUCHED - AVC - AAC-TMVGeetha Govindam (2018) Telugu - 1080p - HDTV - UNTOUCHED - AVC - AAC-TMVGeetha Govindam (2018) Telugu - 1080p - HDTV - UNTOUCHED - AVC - AAC-TMVGeetha Govindam (2018) Telugu - 1080p - HDTV - UNTOUCHED - AVC - AAC-TMVGeetha Govindam (2018) Telugu - 1080p - HDTV - UNTOUCHED - AVC - AAC-TMVGeetha Govindam (2018) Telugu - 1080p - HDTV - UNTOUCHED - AVC - AAC-TMV

SINGLE DIRECT FAST LINKS
http://www.heroupload.us/8ded9f1d97012760/Geetha.Govindam.2018.Telugu.HDTV.1080p.UNTOUCHED.AVC.AAC-TMV.mp4


http://filefloater.com/1L8s/Geetha.Govindam.2018.Telugu.HDTV.1080p.UNTOUCHED.AVC.AAC-TMV.mp4

1GB LINKS


http://www.heroupload.us/c70800385e40bae1/Geetha.Govindam.2018.Telugu.HDTV.1080p.UNTOUCHED.AVC.AAC-TMV.part1.rar
http://www.heroupload.us/809da0aa6eb403a2/Geetha.Govindam.2018.Telugu.HDTV.1080p.UNTOUCHED.AVC.AAC-TMV.part2.rar
http://www.heroupload.us/aa8d00cfce50bda3/Geetha.Govindam.2018.Telugu.HDTV.1080p.UNTOUCHED.AVC.AAC-TMV.part3.rar
http://www.heroupload.us/ee42bf16ca65fe9a/Geetha.Govindam.2018.Telugu.HDTV.1080p.UNTOUCHED.AVC.AAC-TMV.part4.rar
http://www.heroupload.us/b03219383f6edd3a/Geetha.Govindam.2018.Telugu.HDTV.1080p.UNTOUCHED.AVC.AAC-TMV.part5.rar



http://filefloater.com/1L8t/Geetha.Govindam.2018.Telugu.HDTV.1080p.UNTOUCHED.AVC.AAC-TMV.part1.rar
http://filefloater.com/1L8u/Geetha.Govindam.2018.Telugu.HDTV.1080p.UNTOUCHED.AVC.AAC-TMV.part2.rar
http://filefloater.com/1L8v/Geetha.Govindam.2018.Telugu.HDTV.1080p.UNTOUCHED.AVC.AAC-TMV.part3.rar
http://filefloater.com/1L8w/Geetha.Govindam.2018.Telugu.HDTV.1080p.UNTOUCHED.AVC.AAC-TMV.part4.rar
http://filefloater.com/1L8x/Geetha.Govindam.2018.Telugu.HDTV.1080p.UNTOUCHED.AVC.AAC-TMV.part5.rar




Buy Premium From My Links & Support Me

Add a comment

Name:* E-Mail:*
Bold Italic Underline Strike | Align left Center Align right | Insert smilies Insert link URLInsert protected URL Select color | Add Hidden Text Insert Quote Convert selected text from selection to Cyrillic (Russian) alphabet Insert spoiler
Enter the code below: *