Rss
Calendar
«    December 2018    »
MonTueWedThuFriSatSun
 12
3456789
10111213141516
17181920212223
24252627282930
31 
Friends of the site
» » Thaanaa Serndha Koottam (2018) 720p UNCUT HDRip x264 [Dual Audio][Hindi+Tamil] - DM
  • Author: wroser
  • |
  • Comments: 0
  • |
  • Views: 67
Thaanaa Serndha Koottam (2018) 720p UNCUT HDRip x264 [Dual Audio][Hindi+Tamil] - DM







Surya Ki Gang
INFO


General
Format                         : Matroska
Format version                 : Version 4
File size                      : 1.52 GiB
Duration                       : 2 h 14 min
Overall bit rate               : 1 608 kb/s

Video
ID                             : 1
Format                         : AVC
Format/Info                    : Advanced Video Codec
Format profile                 : High@L4
Format settings                : CABAC / 4 Ref Frames
Format settings, CABAC         : Yes
Format settings, ReFrames      : 4 frames
Format settings, GOP           : M=4, N=24
Codec ID                       : V_MPEG4/ISO/AVC
Duration                       : 2 h 14 min
Bit rate                       : 1 350 kb/s
Width                          : 1 280 pixels
Height                         : 544 pixels
Display aspect ratio           : 2.35:1
Frame rate mode                : Constant
Frame rate                     : 23.976 (24000/1001) FPS
Color space                    : YUV
Chroma subsampling             : 4:2:0
Bit depth                      : 8 bits
Default                        : Yes
Forced                         : No
Color range                    : Limited
Color primaries                : BT.709
Transfer characteristics       : BT.709
Matrix coefficients            : BT.709

Audio #1
ID                             : 2
Format                         : AC-3
Format/Info                    : Audio Coding 3
Commercial name                : Dolby Digital
Codec ID                       : A_AC3
Duration                       : 2 h 14 min
Bit rate mode                  : Constant
Bit rate                       : 192 kb/s
Channel(s)                     : 2 channels
Channel layout                 : L R
Sampling rate                  : 48.0 kHz
Frame rate                     : 31.250 FPS (1536 SPF)
Bit depth                      : 16 bits
Compression mode               : Lossy
Delay relative to video        : -5 ms
Stream size                    : 185 MiB (12%)
Language                       : Hindi
Service kind                   : Complete Main
Default                        : Yes
Forced                         : Yes

Audio #2
ID                             : 3
Format                         : AAC LC SBR
Format/Info                    : Advanced Audio Codec Low Complexity with Spectral Band Replication
Commercial name                : HE-AAC
Format settings                : NBC
Codec ID                       : A_AAC-5
Duration                       : 2 h 14 min
Bit rate                       : 64.0 kb/s
Channel(s)                     : 2 channels
Channel layout                 : L R
Sampling rate                  : 48.0 kHz
Frame rate                     : 23.438 FPS (2048 SPF)
Compression mode               : Lossy
Delay relative to video        : -105 ms
Stream size                    : 61.8 MiB (4%)
Language                       : Tamil
Default                        : No
Forced                         : No





Thaanaa Serndha Koottam (2018) 720p UNCUT HDRip x264 [Dual Audio][Hindi+Tamil] - DM
Thaanaa Serndha Koottam (2018) 720p UNCUT HDRip x264 [Dual Audio][Hindi+Tamil] - DM
Thaanaa Serndha Koottam (2018) 720p UNCUT HDRip x264 [Dual Audio][Hindi+Tamil] - DM
Thaanaa Serndha Koottam (2018) 720p UNCUT HDRip x264 [Dual Audio][Hindi+Tamil] - DM
Thaanaa Serndha Koottam (2018) 720p UNCUT HDRip x264 [Dual Audio][Hindi+Tamil] - DM
Thaanaa Serndha Koottam (2018) 720p UNCUT HDRip x264 [Dual Audio][Hindi+Tamil] - DM
Thaanaa Serndha Koottam (2018) 720p UNCUT HDRip x264 [Dual Audio][Hindi+Tamil] - DM
Thaanaa Serndha Koottam (2018) 720p UNCUT HDRip x264 [Dual Audio][Hindi+Tamil] - DM
Thaanaa Serndha Koottam (2018) 720p UNCUT HDRip x264 [Dual Audio][Hindi+Tamil] - DM
Thaanaa Serndha Koottam (2018) 720p UNCUT HDRip x264 [Dual Audio][Hindi+Tamil] - DM
Thaanaa Serndha Koottam (2018) 720p UNCUT HDRip x264 [Dual Audio][Hindi+Tamil] - DM


SINGLE DIRECT FAST LINKS

http://www.heroupload.us/094d99cb063cd567/Thaanaa.Serndha.Koottam.2018.UNCUT.720p.HDRip.x264.Dual.Audio.Hindi+Tamil-DM.mkv



http://filefloater.com/1L8r/Thaanaa.Serndha.Koottam.2018.UNCUT.720p.HDRip.x264.Dual.Audio.Hindi+Tamil-DM.mkv



Buy Premium From My Links & Support Me

Add a comment

Name:* E-Mail:*
Bold Italic Underline Strike | Align left Center Align right | Insert smilies Insert link URLInsert protected URL Select color | Add Hidden Text Insert Quote Convert selected text from selection to Cyrillic (Russian) alphabet Insert spoiler
Enter the code below: *