Rss
Calendar
«    December 2018    »
MonTueWedThuFriSatSun
 12
3456789
10111213141516
17181920212223
24252627282930
31 
Friends of the site
» » Taxiwaala (2018) Telugu Line - 1080p - WEB-HD - AVC - AAC-TMV Exclusive
  • Author: wroser
  • |
  • Comments: 0
  • |
  • Views: 54
Taxiwaala (2018) Telugu Line - 1080p - WEB-HD - AVC - AAC-TMV Exclusive





Format                      : MPEG-4
Format profile              : Base Media
Codec ID                    : isom (isom)
File size                   : 3.54 GiB
Duration                    : 3 h 24 min
Overall bit rate mode       : Variable
Overall bit rate            : 2 478 kb/s
Encoded date                : UTC 2018-11-13 10:20:35
Tagged date                 : UTC 2018-11-13 10:20:35

Video
ID                          : 1
Format                      : AVC
Format/Info                 : Advanced Video Codec
Format profile              : High@L4
Format settings, CABAC      : Yes
Format settings, RefFrames  : 4 frames
Codec ID                    : avc1
Codec ID/Info               : Advanced Video Coding
Duration                    : 3 h 24 min
Bit rate                    : 2 278 kb/s
Maximum bit rate            : 11.1 Mb/s
Width                       : 1 920 pixels
Height                      : 1 080 pixels
Display aspect ratio        : 16:9
Frame rate mode             : Constant
Frame rate                  : 24.000 FPS
Color space                 : YUV
Chroma subsampling          : 4:2:0
Bit depth                   : 8 bits
Scan type                   : Progressive
Bits/(Pixel*Frame)          : 0.046
Stream size                 : 3.25 GiB (92%)
Writing library             : x264 core 155 r2901 7d0ff22
Encoding settings           : cabac=1 / ref=3 / deblock=1:0:0 / analyse=0x3:0x113 / me=hex / subme=7 / psy=1 / psy_rd=1.00:0.00 / mixed_ref=1 / me_range=16 / chroma_me=1 / trellis=1 / 8x8dct=1 / cqm=0 / deadzone=21,11 / fast_pskip=1 / chroma_qp_offset=-2 / threads=34 / lookahead_threads=5 / sliced_threads=0 / nr=0 / decimate=1 / interlaced=0 / bluray_compat=0 / constrained_intra=0 / bframes=3 / b_pyramid=2 / b_adapt=1 / b_bias=0 / direct=1 / weightb=1 / open_gop=0 / weightp=2 / keyint=240 / keyint_min=24 / scenecut=40 / intra_refresh=0 / rc_lookahead=40 / rc=2pass / mbtree=1 / bitrate=2278 / ratetol=1.0 / qcomp=0.60 / qpmin=0 / qpmax=69 / qpstep=4 / cplxblur=20.0 / qblur=0.5 / ip_ratio=1.40 / aq=1:1.00
Encoded date                : UTC 2018-11-13 10:14:19
Tagged date                 : UTC 2018-11-13 10:20:44

Audio
ID                          : 2
Format                      : AAC
Format/Info                 : Advanced Audio Codec
Format profile              : LC
Codec ID                    : 40
Duration                    : 3 h 24 min
Duration_LastFrame          : -10 ms
Bit rate mode               : Variable
Bit rate                    : 192 kb/s
Maximum bit rate            : 207 kb/s
Channel(s)                  : 2 channels
Channel positions           : Front: L R
Sampling rate               : 44.1 kHz
Frame rate                  : 43.066 FPS (1024 SPF)
Compression mode            : Lossy
Stream size                 : 286 MiB (8%)
Default                     : Yes
Alternate group             : 1
Tagged date                 : UTC 2018-11-13 10:20:44



Taxiwaala (2018) Telugu Line - 1080p - WEB-HD - AVC - AAC-TMV ExclusiveTaxiwaala (2018) Telugu Line - 1080p - WEB-HD - AVC - AAC-TMV ExclusiveTaxiwaala (2018) Telugu Line - 1080p - WEB-HD - AVC - AAC-TMV ExclusiveTaxiwaala (2018) Telugu Line - 1080p - WEB-HD - AVC - AAC-TMV ExclusiveTaxiwaala (2018) Telugu Line - 1080p - WEB-HD - AVC - AAC-TMV Exclusive
TO TAXIWAALA TEAM : WE GOT THIS LEAKED PRINT MANY MONTHS AGO, HOWEVER WE WAS WAITING FOR THE THEATRICAL RELEASE AND WE PLANNED TO RELEASE THIS PRINT AFTER 2 WEEK FROM THEATRICAL RELEASE DATE DUE TO SOME ASSHOLES WE ARE FORCED TOO RELEASE IT TOO, WE ARE EXTREMELY SORRY.
SINGLE DIRECT FAST LINKS


SINGLE DIRECT FAST LINKS
https://www.heroupload.us/465139cf314cfac4/Taxiwaala.2018.Telugu.WEB-HD.1080p.AVC.AAC.Line.Audio-TMV.mp4


http://filefloater.com/1lbH/Taxiwaala.2018.Telugu.WEB-HD.1080p.AVC.AAC.Line.Audio-TMV.mp4

700MB LINKS

https://www.heroupload.us/fb9b2501029b7649/Taxiwaala.2018.Telugu.WEB-HD.1080p.AVC.AAC.Line.Audio-TMV.part1.rar
https://www.heroupload.us/6e895c6e42ef6e94/Taxiwaala.2018.Telugu.WEB-HD.1080p.AVC.AAC.Line.Audio-TMV.part2.rar
https://www.heroupload.us/b98dbf25047fa296/Taxiwaala.2018.Telugu.WEB-HD.1080p.AVC.AAC.Line.Audio-TMV.part3.rar
https://www.heroupload.us/9b8461f26573950d/Taxiwaala.2018.Telugu.WEB-HD.1080p.AVC.AAC.Line.Audio-TMV.part4.rar



http://filefloater.com/1LcC/Taxiwaala.2018.Telugu.WEB-HD.1080p.AVC.AAC.Line.Audio-TMV.part1.rar
http://filefloater.com/1LcD/Taxiwaala.2018.Telugu.WEB-HD.1080p.AVC.AAC.Line.Audio-TMV.part2.rar
http://filefloater.com/1LcE/Taxiwaala.2018.Telugu.WEB-HD.1080p.AVC.AAC.Line.Audio-TMV.part3.rar
http://filefloater.com/1lbL/Taxiwaala.2018.Telugu.WEB-HD.1080p.AVC.AAC.Line.Audio-TMV.part4.rar


Buy Premium From My Links & Support Me

Add a comment

Name:* E-Mail:*
Bold Italic Underline Strike | Align left Center Align right | Insert smilies Insert link URLInsert protected URL Select color | Add Hidden Text Insert Quote Convert selected text from selection to Cyrillic (Russian) alphabet Insert spoiler
Enter the code below: *