Rss
Calendar
«    December 2018    »
MonTueWedThuFriSatSun
 12
3456789
10111213141516
17181920212223
24252627282930
31 
Friends of the site
» » Jarugandi (2018) Tamil Ultra HD 4K - Untouched - AVC - Dolby ® 5.1 - Esubs-MTR
  • Author: wroser
  • |
  • Comments: 0
  • |
  • Views: 69
Jarugandi (2018) Tamil Ultra HD 4K - Untouched - AVC - Dolby ® 5.1 - Esubs-MTR





Format                      : MPEG-4
Format profile              : Base Media
Codec ID                    : isom (isom/iso2/avc1/mp41)
File size                   : 5.03 GiB
Duration                    : 2 h 8 min
Overall bit rate mode       : Constant
Overall bit rate            : 5 585 kb/s
Writing application         : Lavf56.25.101

Video
ID                          : 1
Format                      : AVC
Format/Info                 : Advanced Video Codec
Format profile              : Main@L5.1
Format settings, CABAC      : Yes
Format settings, RefFrames  : 3 frames
Codec ID                    : avc1
Codec ID/Info               : Advanced Video Coding
Duration                    : 2 h 8 min
Bit rate mode               : Constant
Bit rate                    : 5 000 kb/s
Width                       : 3 840 pixels
Height                      : 2 160 pixels
Display aspect ratio        : 16:9
Frame rate mode             : Constant
Frame rate                  : 25.000 FPS
Standard                    : PAL
Color space                 : YUV
Chroma subsampling          : 4:2:0
Bit depth                   : 8 bits
Scan type                   : Progressive
Bits/(Pixel*Frame)          : 0.024
Stream size                 : 4.50 GiB (90%)
Color range                 : Limited
Color primaries             : BT.709
Transfer characteristics    : BT.709
Matrix coefficients         : BT.709

Audio #1
ID                          : 2
Format                      : AAC
Format/Info                 : Advanced Audio Codec
Format profile              : LC
Codec ID                    : 40
Duration                    : 2 h 8 min
Bit rate mode               : Constant
Bit rate                    : 125 kb/s
Channel(s)                  : 2 channels
Channel positions           : Front: L R
Sampling rate               : 48.0 kHz
Frame rate                  : 46.875 FPS (1024 SPF)
Compression mode            : Lossy
Stream size                 : 116 MiB (2%)
Default                     : Yes
Alternate group             : 1

Audio #2
ID                          : 3
Format                      : AC-3
Format/Info                 : Audio Coding 3
Format settings, Endianness : Big
Codec ID                    : ac-3
Duration                    : 2 h 8 min
Bit rate mode               : Constant
Bit rate                    : 448 kb/s
Channel(s)                  : 6 channels
Channel positions           : Front: L C R, Side: L R, LFE
Sampling rate               : 48.0 kHz
Frame rate                  : 31.250 FPS (1536 SPF)
Bit depth                   : 16 bits
Compression mode            : Lossy
Stream size                 : 413 MiB (8%)
Service kind                : Complete Main
Default                     : Yes
Alternate group             : 2



Jarugandi (2018) Tamil Ultra HD 4K - Untouched - AVC - Dolby ® 5.1 - Esubs-MTRJarugandi (2018) Tamil Ultra HD 4K - Untouched - AVC - Dolby ® 5.1 - Esubs-MTRJarugandi (2018) Tamil Ultra HD 4K - Untouched - AVC - Dolby ® 5.1 - Esubs-MTRJarugandi (2018) Tamil Ultra HD 4K - Untouched - AVC - Dolby ® 5.1 - Esubs-MTRJarugandi (2018) Tamil Ultra HD 4K - Untouched - AVC - Dolby ® 5.1 - Esubs-MTR


SINGLE DIRECT FAST LINKS

https://www.heroupload.us/54d1288fca367314/Jarugandi.2018.4K.Untouched.UHD.MP4.ESubs.Tamil-MTR.mp4


1GB LINKS

https://www.heroupload.us/b541c12e34548555/Jarugandi.2018.4K.Untouched.UHD.MP4.ESubs.Tamil-MTR.part1.rar
https://www.heroupload.us/b2d5ea72c4db9967/Jarugandi.2018.4K.Untouched.UHD.MP4.ESubs.Tamil-MTR.part2.rar
https://www.heroupload.us/a8afbf49507acab6/Jarugandi.2018.4K.Untouched.UHD.MP4.ESubs.Tamil-MTR.part3.rar
https://www.heroupload.us/8c5975799ed2055a/Jarugandi.2018.4K.Untouched.UHD.MP4.ESubs.Tamil-MTR.part4.rar
https://www.heroupload.us/f443ee3e7400ffee/Jarugandi.2018.4K.Untouched.UHD.MP4.ESubs.Tamil-MTR.part5.rar
https://www.heroupload.us/4b67113a672b2767/Jarugandi.2018.4K.Untouched.UHD.MP4.ESubs.Tamil-MTR.part6.rar
https://www.heroupload.us/8553301018841b0d/Jarugandi.2018.4K.Untouched.UHD.MP4.ESubs.Tamil-MTR.srt


https://filefloater.com/Vc4/Jarugandi.2018.4K.Untouched.UHD.MP4.ESubs.Tamil-MTR.part1.rar
https://filefloater.com/Vc5/Jarugandi.2018.4K.Untouched.UHD.MP4.ESubs.Tamil-MTR.part2.rar
https://filefloater.com/Vc6/Jarugandi.2018.4K.Untouched.UHD.MP4.ESubs.Tamil-MTR.part3.rar
https://filefloater.com/Vc7/Jarugandi.2018.4K.Untouched.UHD.MP4.ESubs.Tamil-MTR.part4.rar
https://filefloater.com/Vc8/Jarugandi.2018.4K.Untouched.UHD.MP4.ESubs.Tamil-MTR.part5.rar
https://filefloater.com/Vc9/Jarugandi.2018.4K.Untouched.UHD.MP4.ESubs.Tamil-MTR.part6.rar
https://filefloater.com/Vca/Jarugandi.2018.4K.Untouched.UHD.MP4.ESubs.Tamil-MTR.srt


Buy Premium From My Links & Support Me

Add a comment

Name:* E-Mail:*
Bold Italic Underline Strike | Align left Center Align right | Insert smilies Insert link URLInsert protected URL Select color | Add Hidden Text Insert Quote Convert selected text from selection to Cyrillic (Russian) alphabet Insert spoiler
Enter the code below: *