Rss
Calendar
«    December 2018    »
MonTueWedThuFriSatSun
 12
3456789
10111213141516
17181920212223
24252627282930
31 
Friends of the site
» » Lupt (2018) 700MB - 1CDRip - CAMRip - x264 - AAC-Exclusive
  • Author: wroser
  • |
  • Comments: 0
  • |
  • Views: 28
Lupt (2018) 700MB - 1CDRip - CAMRip - x264 - AAC-Exclusive






Format                      : Matroska
Format version              : Version 4 / Version 2
File size                   : 722 MiB
Duration                    : 1 h 58 min
Overall bit rate            : 854 kb/s
Encoded date                : UTC 2018-11-17 12:45:07
Writing application         : mkvmerge v7.1.0 ('Good Love') 32bit built on Jul 27 2014 12:59:18
Writing library             : libebml v1.3.0 + libmatroska v1.4.1

Video
ID                          : 1
Format                      : AVC
Format/Info                 : Advanced Video Codec
Format profile              : High@L3.1
Format settings, CABAC      : Yes
Format settings, RefFrames  : 4 frames
Codec ID                    : V_MPEG4/ISO/AVC
Duration                    : 1 h 58 min
Bit rate                    : 786 kb/s
Width                       : 720 pixels
Height                      : 304 pixels
Display aspect ratio        : 2.35:1
Frame rate mode             : Constant
Frame rate                  : 25.000 FPS
Color space                 : YUV
Chroma subsampling          : 4:2:0
Bit depth                   : 8 bits
Scan type                   : Progressive
Bits/(Pixel*Frame)          : 0.144
Stream size                 : 666 MiB (92%)
Writing library             : x264 core 155 r2901 7d0ff22
Encoding settings           : cabac=1 / ref=1 / deblock=1:0:0 / analyse=0x3:0x113 / me=hex / subme=2 / psy=1 / psy_rd=1.00:0.00 / mixed_ref=0 / me_range=16 / chroma_me=1 / trellis=0 / 8x8dct=1 / cqm=0 / deadzone=21,11 / fast_pskip=1 / chroma_qp_offset=0 / threads=9 / lookahead_threads=2 / sliced_threads=0 / nr=0 / decimate=1 / interlaced=0 / bluray_compat=0 / constrained_intra=0 / bframes=3 / b_pyramid=2 / b_adapt=1 / b_bias=0 / direct=1 / weightb=1 / open_gop=0 / weightp=1 / keyint=250 / keyint_min=25 / scenecut=40 / intra_refresh=0 / rc_lookahead=10 / rc=abr / mbtree=1 / bitrate=786 / ratetol=1.0 / qcomp=0.60 / qpmin=0 / qpmax=69 / qpstep=4 / vbv_maxrate=17500 / vbv_bufsize=17500 / nal_hrd=none / filler=0 / ip_ratio=1.40 / aq=1:1.00
Language                    : Hindi
Default                     : Yes
Forced                      : No
Color range                 : Limited
Color primaries             : BT.601 PAL
Transfer characteristics    : BT.709
Matrix coefficients         : BT.601

Audio
ID                          : 2
Format                      : AAC
Format/Info                 : Advanced Audio Codec
Format profile              : LC
Codec ID                    : A_AAC
Duration                    : 1 h 58 min
Bit rate                    : 64.4 kb/s
Channel(s)                  : 2 channels
Channel positions           : Front: L R
Sampling rate               : 48.0 kHz
Frame rate                  : 46.875 FPS (1024 SPF)
Compression mode            : Lossy
Delay relative to video     : -21 ms
Stream size                 : 54.4 MiB (8%)
Language                    : Hindi
Default                     : Yes
Forced                      : No



Lupt (2018) 700MB - 1CDRip - CAMRip - x264 - AAC-ExclusiveLupt (2018) 700MB - 1CDRip - CAMRip - x264 - AAC-ExclusiveLupt (2018) 700MB - 1CDRip - CAMRip - x264 - AAC-ExclusiveLupt (2018) 700MB - 1CDRip - CAMRip - x264 - AAC-ExclusiveLupt (2018) 700MB - 1CDRip - CAMRip - x264 - AAC-Exclusive


SINGLE DIRECT FAST LINKS

https://www.heroupload.us/ae1368270c47605b/Lupt.2018.Hindi.HD-CAMRip.700MB.x264.AAC-Exclusive.mkv



https://filefloater.com/Vcs/Lupt.2018.Hindi.HD-CAMRip.700MB.x264.AAC-Exclusive.mkv



Buy Premium From My Links & Support Me

Add a comment

Name:* E-Mail:*
Bold Italic Underline Strike | Align left Center Align right | Insert smilies Insert link URLInsert protected URL Select color | Add Hidden Text Insert Quote Convert selected text from selection to Cyrillic (Russian) alphabet Insert spoiler
Enter the code below: *