Rss
Calendar
«    December 2018    »
MonTueWedThuFriSatSun
 12
3456789
10111213141516
17181920212223
24252627282930
31 
Friends of the site
» » Chekka Chivantha Vaanam (2018) Tamil - 1080p - WEB-HD - AVC - DD5.1 - ESubs-MTR
  • Author: wroser
  • |
  • Comments: 0
  • |
  • Views: 35
Chekka Chivantha Vaanam (2018) Tamil - 1080p - WEB-HD - AVC - DD5.1 - ESubs-MTR





Format                      : MPEG-TS
File size                   : 8.78 GiB
Duration                    : 2 h 16 min
Overall bit rate mode       : Variable
Overall bit rate            : 9 183 kb/s

Video
ID                          : 481 (0x1E1)
Menu ID                     : 1 (0x1)
Format                      : AVC
Format/Info                 : Advanced Video Codec
Format profile              : High@L4
Format settings, CABAC      : Yes
Format settings, RefFrames  : 3 frames
Codec ID                    : 27
Duration                    : 2 h 16 min
Bit rate mode               : Constant
Bit rate                    : 8 500 kb/s
Maximum bit rate            : 8 970 kb/s
Width                       : 1 920 pixels
Height                      : 1 080 pixels
Display aspect ratio        : 16:9
Frame rate                  : 29.970 (30000/1001) FPS
Standard                    : PAL
Color space                 : YUV
Chroma subsampling          : 4:2:0
Bit depth                   : 8 bits
Scan type                   : Progressive
Bits/(Pixel*Frame)          : 0.137
Stream size                 : 7.91 GiB (90%)
Color range                 : Limited
Color primaries             : BT.709
Transfer characteristics    : BT.709
Matrix coefficients         : BT.709

Audio
ID                          : 482 (0x1E2)
Menu ID                     : 1 (0x1)
Format                      : AC-3
Format/Info                 : Audio Coding 3
Format settings, Endianness : Big
Codec ID                    : 129
Duration                    : 2 h 16 min
Bit rate mode               : Constant
Bit rate                    : 448 kb/s
Maximum bit rate            : 616 kb/s
Channel(s)                  : 6 channels
Channel positions           : Front: L C R, Side: L R, LFE
Sampling rate               : 48.0 kHz
Frame rate                  : 31.250 FPS (1536 SPF)
Bit depth                   : 16 bits
Compression mode            : Lossy
Stream size                 : 439 MiB (5%)
Service kind                : Complete Main

Menu
ID                          : 480 (0x1E0)
Menu ID                     : 1 (0x1)
Duration                    : 2 h 16 min
List                        : 481 (0x1E1) (AVC) / 482 (0x1E2) (AC-3)
Maximum bit rate            : 9586400




Chekka Chivantha Vaanam (2018) Tamil - 1080p - WEB-HD - AVC - DD5.1 - ESubs-MTRChekka Chivantha Vaanam (2018) Tamil - 1080p - WEB-HD - AVC - DD5.1 - ESubs-MTRChekka Chivantha Vaanam (2018) Tamil - 1080p - WEB-HD - AVC - DD5.1 - ESubs-MTRChekka Chivantha Vaanam (2018) Tamil - 1080p - WEB-HD - AVC - DD5.1 - ESubs-MTRChekka Chivantha Vaanam (2018) Tamil - 1080p - WEB-HD - AVC - DD5.1 - ESubs-MTRChekka Chivantha Vaanam (2018) Tamil - 1080p - WEB-HD - AVC - DD5.1 - ESubs-MTRChekka Chivantha Vaanam (2018) Tamil - 1080p - WEB-HD - AVC - DD5.1 - ESubs-MTRChekka Chivantha Vaanam (2018) Tamil - 1080p - WEB-HD - AVC - DD5.1 - ESubs-MTR

SINGLE DIRECT FAST LINKS

https://www.heroupload.us/91bd586d7f1437f7/Chekka.Chivantha.Vaanam.2018.1080p.v3.HD.AVC.MP4.DD5.1.ESubs.Tamil-MTR.TS


1GB LINKS
https://www.heroupload.us/5a3dba26238575f4/Chekka.Chivantha.Vaanam.2018.1080p.v3.HD.AVC.MP4.DD5.1.ESubs.Tamil-MTR.part01.rar
https://www.heroupload.us/11fc1e2f649e9cb7/Chekka.Chivantha.Vaanam.2018.1080p.v3.HD.AVC.MP4.DD5.1.ESubs.Tamil-MTR.part02.rar
https://www.heroupload.us/05f1279198f48ddb/Chekka.Chivantha.Vaanam.2018.1080p.v3.HD.AVC.MP4.DD5.1.ESubs.Tamil-MTR.part03.rar
https://www.heroupload.us/b76c56ccf9aa4101/Chekka.Chivantha.Vaanam.2018.1080p.v3.HD.AVC.MP4.DD5.1.ESubs.Tamil-MTR.part04.rar
https://www.heroupload.us/67f01ff0e81c682b/Chekka.Chivantha.Vaanam.2018.1080p.v3.HD.AVC.MP4.DD5.1.ESubs.Tamil-MTR.part05.rar
https://www.heroupload.us/c6410182c291b7c5/Chekka.Chivantha.Vaanam.2018.1080p.v3.HD.AVC.MP4.DD5.1.ESubs.Tamil-MTR.part06.rar
https://www.heroupload.us/9e16834b2e8c529a/Chekka.Chivantha.Vaanam.2018.1080p.v3.HD.AVC.MP4.DD5.1.ESubs.Tamil-MTR.part07.rar
https://www.heroupload.us/4b28cf6ff71103f3/Chekka.Chivantha.Vaanam.2018.1080p.v3.HD.AVC.MP4.DD5.1.ESubs.Tamil-MTR.part08.rar
https://www.heroupload.us/c704cb394c225561/Chekka.Chivantha.Vaanam.2018.1080p.v3.HD.AVC.MP4.DD5.1.ESubs.Tamil-MTR.part09.rar
https://www.heroupload.us/3188595997f35731/Chekka.Chivantha.Vaanam.2018.1080p.v3.HD.AVC.MP4.DD5.1.ESubs.Tamil-MTR.srt



https://filefloater.com/1LgF/Chekka.Chivantha.Vaanam.2018.1080p.v3.HD.AVC.MP4.DD5.1.ESubs.Tamil-MTR.part01.rar
https://filefloater.com/1LgG/Chekka.Chivantha.Vaanam.2018.1080p.v3.HD.AVC.MP4.DD5.1.ESubs.Tamil-MTR.part02.rar
https://filefloater.com/1lfN/Chekka.Chivantha.Vaanam.2018.1080p.v3.HD.AVC.MP4.DD5.1.ESubs.Tamil-MTR.part03.rar
https://filefloater.com/1lfO/Chekka.Chivantha.Vaanam.2018.1080p.v3.HD.AVC.MP4.DD5.1.ESubs.Tamil-MTR.part04.rar
https://filefloater.com/1lfP/Chekka.Chivantha.Vaanam.2018.1080p.v3.HD.AVC.MP4.DD5.1.ESubs.Tamil-MTR.part05.rar
https://filefloater.com/1lfQ/Chekka.Chivantha.Vaanam.2018.1080p.v3.HD.AVC.MP4.DD5.1.ESubs.Tamil-MTR.part06.rar
https://filefloater.com/1lfR/Chekka.Chivantha.Vaanam.2018.1080p.v3.HD.AVC.MP4.DD5.1.ESubs.Tamil-MTR.part07.rar
https://filefloater.com/1LgM/Chekka.Chivantha.Vaanam.2018.1080p.v3.HD.AVC.MP4.DD5.1.ESubs.Tamil-MTR.part08.rar
https://filefloater.com/1lfT/Chekka.Chivantha.Vaanam.2018.1080p.v3.HD.AVC.MP4.DD5.1.ESubs.Tamil-MTR.part09.rar
https://filefloater.com/Vf0/Chekka.Chivantha.Vaanam.2018.1080p.v3.HD.AVC.MP4.DD5.1.ESubs.Tamil-MTR.srt



Buy Premium From My Links & Support Me

Add a comment

Name:* E-Mail:*
Bold Italic Underline Strike | Align left Center Align right | Insert smilies Insert link URLInsert protected URL Select color | Add Hidden Text Insert Quote Convert selected text from selection to Cyrillic (Russian) alphabet Insert spoiler
Enter the code below: *