Rss
Calendar
«    December 2018    »
MonTueWedThuFriSatSun
 12
3456789
10111213141516
17181920212223
24252627282930
31 
Friends of the site
» » Vada Chennai (2018) Tamil Ultra HD 4K - Untouched - AVC - Dolby ® 5.1 - Esubs-MTR
  • Author: wroser
  • |
  • Comments: 0
  • |
  • Views: 40
Vada Chennai (2018) Tamil Ultra HD 4K - Untouched - AVC - Dolby ® 5.1 - Esubs-MTR





Format                      : MPEG-4
Codec ID                    : M4V  (isom/avc1/mp42)
File size                   : 6.09 GiB
Duration                    : 2 h 36 min
Overall bit rate mode       : Variable
Overall bit rate            : 5 583 kb/s
Encoded date                : UTC 2018-11-28 15:14:06
Tagged date                 : UTC 2018-11-28 15:14:06

Video
ID                          : 1
Format                      : AVC
Format/Info                 : Advanced Video Codec
Format profile              : Main@L5.1
Format settings, CABAC      : Yes
Format settings, RefFrames  : 3 frames
Format settings, GOP        : M=3, N=90
Codec ID                    : avc1
Codec ID/Info               : Advanced Video Coding
Duration                    : 2 h 36 min
Bit rate mode               : Constant
Bit rate                    : 5 000 kb/s
Maximum bit rate            : 12.3 Mb/s
Width                       : 3 840 pixels
Height                      : 2 160 pixels
Display aspect ratio        : 16:9
Frame rate mode             : Constant
Frame rate                  : 25.000 FPS
Standard                    : PAL
Color space                 : YUV
Chroma subsampling          : 4:2:0
Bit depth                   : 8 bits
Scan type                   : Progressive
Bits/(Pixel*Frame)          : 0.024
Stream size                 : 5.45 GiB (90%)
Encoded date                : UTC 2018-11-28 15:14:06
Tagged date                 : UTC 2018-11-28 15:14:06
Color range                 : Limited
Color primaries             : BT.709
Transfer characteristics    : BT.709
Matrix coefficients         : BT.709

Audio #1
ID                          : 2
Format                      : AAC
Format/Info                 : Advanced Audio Codec
Format profile              : LC
Codec ID                    : 40
Duration                    : 2 h 36 min
Bit rate mode               : Variable
Bit rate                    : 128 kb/s
Maximum bit rate            : 133 kb/s
Channel(s)                  : 2 channels
Channel positions           : Front: L R
Sampling rate               : 48.0 kHz
Frame rate                  : 46.875 FPS (1024 SPF)
Compression mode            : Lossy
Stream size                 : 140 MiB (2%)
Encoded date                : UTC 2018-11-28 15:14:06
Tagged date                 : UTC 2018-11-28 15:14:06

Audio #2
ID                          : 3
Format                      : AC-3
Format/Info                 : Audio Coding 3
Format settings, Endianness : Big
Codec ID                    : ac-3
Duration                    : 2 h 36 min
Bit rate mode               : Constant
Bit rate                    : 448 kb/s
Channel(s)                  : 6 channels
Channel positions           : Front: L C R, Side: L R, LFE
Sampling rate               : 48.0 kHz
Frame rate                  : 31.250 FPS (1536 SPF)
Bit depth                   : 16 bits
Compression mode            : Lossy
Stream size                 : 500 MiB (8%)
Service kind                : Complete Main
Encoded date                : UTC 2018-11-28 15:14:06
Tagged date                 : UTC 2018-11-28 15:14:06



Vada Chennai (2018) Tamil Ultra HD 4K - Untouched - AVC - Dolby ® 5.1 - Esubs-MTRVada Chennai (2018) Tamil Ultra HD 4K - Untouched - AVC - Dolby ® 5.1 - Esubs-MTRVada Chennai (2018) Tamil Ultra HD 4K - Untouched - AVC - Dolby ® 5.1 - Esubs-MTRVada Chennai (2018) Tamil Ultra HD 4K - Untouched - AVC - Dolby ® 5.1 - Esubs-MTRVada Chennai (2018) Tamil Ultra HD 4K - Untouched - AVC - Dolby ® 5.1 - Esubs-MTR


SINGLE DIRECT FAST LINKS

https://www.heroupload.us/58e840f5f60f4ec8/Vada.Chennai.2018.Tamil.4K.Untouched.UHD.MP4.ESubs-MTR.mp4


1GB LINKS

https://www.heroupload.us/69f934f7946c13ab/Vada.Chennai.2018.Tamil.4K.Untouched.UHD.MP4.ESubs-MTR.part1.rar
https://www.heroupload.us/99d0882501014ad0/Vada.Chennai.2018.Tamil.4K.Untouched.UHD.MP4.ESubs-MTR.part2.rar
https://www.heroupload.us/28d3179f3d59e32a/Vada.Chennai.2018.Tamil.4K.Untouched.UHD.MP4.ESubs-MTR.part3.rar
https://www.heroupload.us/cb532caf82f09b99/Vada.Chennai.2018.Tamil.4K.Untouched.UHD.MP4.ESubs-MTR.part4.rar
https://www.heroupload.us/bc57bac73994d2e4/Vada.Chennai.2018.Tamil.4K.Untouched.UHD.MP4.ESubs-MTR.part5.rar
https://www.heroupload.us/34701087057e8127/Vada.Chennai.2018.Tamil.4K.Untouched.UHD.MP4.ESubs-MTR.part6.rar
https://www.heroupload.us/e5b6c9dc67d68bf2/Vada.Chennai.2018.Tamil.4K.Untouched.UHD.MP4.ESubs-MTR.part7.rar
https://www.heroupload.us/b275e38dbd481fe6/Vada.Chennai.2018.Tamil.4K.Untouched.UHD.MP4.ESubs-MTR.srt



https://filefloater.com/1lhM/Vada.Chennai.2018.Tamil.4K.Untouched.UHD.MP4.ESubs-MTR.part1.rar
https://filefloater.com/1LiH/Vada.Chennai.2018.Tamil.4K.Untouched.UHD.MP4.ESubs-MTR.part2.rar
https://filefloater.com/1LiI/Vada.Chennai.2018.Tamil.4K.Untouched.UHD.MP4.ESubs-MTR.part3.rar
https://filefloater.com/1LiJ/Vada.Chennai.2018.Tamil.4K.Untouched.UHD.MP4.ESubs-MTR.part4.rar
https://filefloater.com/1LiK/Vada.Chennai.2018.Tamil.4K.Untouched.UHD.MP4.ESubs-MTR.part5.rar
https://filefloater.com/1LiL/Vada.Chennai.2018.Tamil.4K.Untouched.UHD.MP4.ESubs-MTR.part6.rar
https://filefloater.com/1LiM/Vada.Chennai.2018.Tamil.4K.Untouched.UHD.MP4.ESubs-MTR.part7.rar
https://filefloater.com/1LiN/Vada.Chennai.2018.Tamil.4K.Untouched.UHD.MP4.ESubs-MTR.srt


Buy Premium From My Links & Support Me

Add a comment

Name:* E-Mail:*
Bold Italic Underline Strike | Align left Center Align right | Insert smilies Insert link URLInsert protected URL Select color | Add Hidden Text Insert Quote Convert selected text from selection to Cyrillic (Russian) alphabet Insert spoiler
Enter the code below: *