Rss
Calendar
«    December 2018    »
MonTueWedThuFriSatSun
 12
3456789
10111213141516
17181920212223
24252627282930
31 
Friends of the site
» » Savyasachi (2018) Telugu - 1080p - WEB-DL - AVC - DD5.1 - ESub-TMV
  • Author: wroser
  • |
  • Comments: 0
  • |
  • Views: 37
Savyasachi (2018) Telugu - 1080p - WEB-DL - AVC - DD5.1 - ESub-TMV





Format                      : Matroska
Format version              : Version 4 / Version 2
File size                   : 7.71 GiB
Duration                    : 2 h 27 min
Overall bit rate            : 7 461 kb/s
Encoded date                : UTC 2018-12-02 08:48:56
Writing application         : mkvmerge v8.2.0 ('World of Adventure') 64bit
Writing library             : libebml v1.3.1 + libmatroska v1.4.2

Video
ID                          : 1
Format                      : AVC
Format/Info                 : Advanced Video Codec
Format profile              : High@L4
Format settings, CABAC      : Yes
Format settings, RefFrames  : 4 frames
Codec ID                    : V_MPEG4/ISO/AVC
Duration                    : 2 h 27 min
Bit rate                    : 6 819 kb/s
Width                       : 1 920 pixels
Height                      : 816 pixels
Display aspect ratio        : 2.35:1
Frame rate mode             : Constant
Frame rate                  : 24.000 FPS
Color space                 : YUV
Chroma subsampling          : 4:2:0
Bit depth                   : 8 bits
Scan type                   : Progressive
Bits/(Pixel*Frame)          : 0.181
Stream size                 : 7.04 GiB (91%)
Language                    : Telugu
Default                     : Yes
Forced                      : No
Color range                 : Limited
Color primaries             : BT.709
Transfer characteristics    : BT.709
Matrix coefficients         : BT.709

Audio
ID                          : 2
Format                      : E-AC-3
Format/Info                 : Enhanced Audio Coding 3
Format settings, Endianness : Big
Codec ID                    : A_EAC3
Duration                    : 2 h 27 min
Bit rate mode               : Constant
Bit rate                    : 640 kb/s
Channel(s)                  : 6 channels
Channel positions           : Front: L C R, Side: L R, LFE
Sampling rate               : 48.0 kHz
Frame rate                  : 187.500 FPS (256 SPF)
Compression mode            : Lossy
Stream size                 : 677 MiB (9%)
Language                    : Telugu
Service kind                : Complete Main
Default                     : No
Forced                      : No

Text
ID                          : 3
Format                      : UTF-8
Codec ID                    : S_TEXT/UTF8
Codec ID/Info               : UTF-8 Plain Text
Duration                    : 2 h 25 min
Bit rate                    : 69 b/s
Count of elements           : 1919
Stream size                 : 74.6 KiB (0%)
Language                    : English
Default                     : No
Forced                      : No

Menu
00:00:00.000                : en:Studio Logos
00:01:00.000                : en:Scene 2
00:09:43.000                : en:Title Sequence
00:10:02.000                : en:Scene 4
00:21:47.000                : en:Scene 5
00:33:15.000                : en:Scene 6
00:42:06.000                : en:Scene 7
00:52:10.000                : en:Scene 8
01:00:04.000                : en:Scene 9
01:19:32.000                : en:Scene 10
01:28:32.000                : en:Scene 11
01:41:16.000                : en:Scene 12
01:51:32.000                : en:Scene 13
01:59:02.000                : en:Scene 14
02:12:30.000                : en:Scene 15
02:25:50.000                : en:End Credits



Savyasachi (2018) Telugu - 1080p - WEB-DL - AVC - DD5.1 - ESub-TMVSavyasachi (2018) Telugu - 1080p - WEB-DL - AVC - DD5.1 - ESub-TMVSavyasachi (2018) Telugu - 1080p - WEB-DL - AVC - DD5.1 - ESub-TMVSavyasachi (2018) Telugu - 1080p - WEB-DL - AVC - DD5.1 - ESub-TMVSavyasachi (2018) Telugu - 1080p - WEB-DL - AVC - DD5.1 - ESub-TMVSavyasachi (2018) Telugu - 1080p - WEB-DL - AVC - DD5.1 - ESub-TMV


SINGLE DIRECT FAST LINKS

https://www.heroupload.us/1b7e34502bf6dea1/Savyasachi.2018.Telugu.WEB-DL.1080p.AVC.UNTOUCHED.DD5.1.ESub-TMV.mkv


1GB LINKS


https://www.heroupload.us/12824061d18bc321/Savyasachi.2018.Telugu.WEB-DL.1080p.AVC.UNTOUCHED.DD5.1.ESub-TMV.part1.rar
https://www.heroupload.us/97d170b0c3d92706/Savyasachi.2018.Telugu.WEB-DL.1080p.AVC.UNTOUCHED.DD5.1.ESub-TMV.part2.rar
https://www.heroupload.us/02b8b369adec7d06/Savyasachi.2018.Telugu.WEB-DL.1080p.AVC.UNTOUCHED.DD5.1.ESub-TMV.part3.rar
https://www.heroupload.us/1762cf29bdd847fc/Savyasachi.2018.Telugu.WEB-DL.1080p.AVC.UNTOUCHED.DD5.1.ESub-TMV.part4.rar
https://www.heroupload.us/213695196522d251/Savyasachi.2018.Telugu.WEB-DL.1080p.AVC.UNTOUCHED.DD5.1.ESub-TMV.part5.rar
https://www.heroupload.us/2d2ade156e25451b/Savyasachi.2018.Telugu.WEB-DL.1080p.AVC.UNTOUCHED.DD5.1.ESub-TMV.part6.rar
https://www.heroupload.us/babecab07186dad5/Savyasachi.2018.Telugu.WEB-DL.1080p.AVC.UNTOUCHED.DD5.1.ESub-TMV.part7.rar
https://www.heroupload.us/a2f9f576fa550ca9/Savyasachi.2018.Telugu.WEB-DL.1080p.AVC.UNTOUCHED.DD5.1.ESub-TMV.part8.rar



https://filefloater.com/1Lky/Savyasachi.2018.Telugu.WEB-DL.1080p.AVC.UNTOUCHED.DD5.1.ESub-TMV.part1.rar
https://filefloater.com/1Lkz/Savyasachi.2018.Telugu.WEB-DL.1080p.AVC.UNTOUCHED.DD5.1.ESub-TMV.part2.rar
https://filefloater.com/1LkA/Savyasachi.2018.Telugu.WEB-DL.1080p.AVC.UNTOUCHED.DD5.1.ESub-TMV.part3.rar
https://filefloater.com/1LkB/Savyasachi.2018.Telugu.WEB-DL.1080p.AVC.UNTOUCHED.DD5.1.ESub-TMV.part4.rar
https://filefloater.com/1LkC/Savyasachi.2018.Telugu.WEB-DL.1080p.AVC.UNTOUCHED.DD5.1.ESub-TMV.part5.rar
https://filefloater.com/1LkD/Savyasachi.2018.Telugu.WEB-DL.1080p.AVC.UNTOUCHED.DD5.1.ESub-TMV.part6.rar
https://filefloater.com/1LkE/Savyasachi.2018.Telugu.WEB-DL.1080p.AVC.UNTOUCHED.DD5.1.ESub-TMV.part7.rar
https://filefloater.com/1ljL/Savyasachi.2018.Telugu.WEB-DL.1080p.AVC.UNTOUCHED.DD5.1.ESub-TMV.part8.rar


Buy Premium From My Links & Support Me

Add a comment

Name:* E-Mail:*
Bold Italic Underline Strike | Align left Center Align right | Insert smilies Insert link URLInsert protected URL Select color | Add Hidden Text Insert Quote Convert selected text from selection to Cyrillic (Russian) alphabet Insert spoiler
Enter the code below: *