Rss
Calendar
«    December 2018    »
MonTueWedThuFriSatSun
 12
3456789
10111213141516
17181920212223
24252627282930
31 
Friends of the site
» » Ye Mantram Vesave (2018) Telugu - 1080p - WEB-DL - AVC - AAC - ESub-TMV
  • Author: wroser
  • |
  • Comments: 0
  • |
  • Views: 32
Ye Mantram Vesave (2018) Telugu - 1080p - WEB-DL - AVC - AAC - ESub-TMV





Format                      : Matroska
Format version              : Version 4 / Version 2
File size                   : 8.54 GiB
Duration                    : 2 h 2 min
Overall bit rate            : 9 994 kb/s
Encoded date                : UTC 2018-12-05 04:21:45
Writing application         : mkvmerge v25.0.0 ('Prog Noir') 32-bit
Writing library             : libebml v1.3.6 + libmatroska v1.4.9

Video
ID                          : 1
Format                      : AVC
Format/Info                 : Advanced Video Codec
Format profile              : High@L4
Format settings, CABAC      : Yes
Format settings, RefFrames  : 4 frames
Format settings, GOP        : M=4, N=48
Codec ID                    : V_MPEG4/ISO/AVC
Duration                    : 2 h 2 min
Bit rate mode               : Constant
Bit rate                    : 10 000 kb/s
Width                       : 1 920 pixels
Height                      : 816 pixels
Display aspect ratio        : 2.35:1
Frame rate mode             : Constant
Frame rate                  : 24.000 FPS
Color space                 : YUV
Chroma subsampling          : 4:2:0
Bit depth                   : 8 bits
Scan type                   : Progressive
Bits/(Pixel*Frame)          : 0.266
Stream size                 : 8.43 GiB (99%)
Default                     : Yes
Forced                      : No
Color range                 : Limited
Color primaries             : BT.709
Transfer characteristics    : BT.709
Matrix coefficients         : BT.709

Audio
ID                          : 2
Format                      : AAC
Format/Info                 : Advanced Audio Codec
Format profile              : LC
Codec ID                    : A_AAC
Duration                    : 2 h 2 min
Bit rate                    : 125 kb/s
Channel(s)                  : 2 channels
Channel positions           : Front: L R
Sampling rate               : 48.0 kHz
Frame rate                  : 46.875 FPS (1024 SPF)
Compression mode            : Lossy
Stream size                 : 110 MiB (1%)
Title                       : Telugu
Language                    : Telugu
Default                     : No
Forced                      : No

Text
ID                          : 3
Format                      : UTF-8
Codec ID                    : S_TEXT/UTF8
Codec ID/Info               : UTF-8 Plain Text
Duration                    : 1 h 59 min
Bit rate                    : 53 b/s
Count of elements           : 1579
Stream size                 : 46.6 KiB (0%)
Title                       : English [SDH]
Language                    : English
Default                     : No
Forced                      : No




Ye Mantram Vesave (2018) Telugu - 1080p - WEB-DL - AVC - AAC - ESub-TMVYe Mantram Vesave (2018) Telugu - 1080p - WEB-DL - AVC - AAC - ESub-TMVYe Mantram Vesave (2018) Telugu - 1080p - WEB-DL - AVC - AAC - ESub-TMVYe Mantram Vesave (2018) Telugu - 1080p - WEB-DL - AVC - AAC - ESub-TMVYe Mantram Vesave (2018) Telugu - 1080p - WEB-DL - AVC - AAC - ESub-TMVYe Mantram Vesave (2018) Telugu - 1080p - WEB-DL - AVC - AAC - ESub-TMV
SINGLE DIRECT FAST LINKS

https://www.heroupload.us/86f374895511f810/Ye.Mantram.Vesave.2018.Telugu.WEB-DL.1080p.UNTOUCHED.AVC.AAC.ESub-TMV.mkv


1GB LINKS

https://www.heroupload.us/5edb571e9b3d55a9/Ye.Mantram.Vesave.2018.Telugu.WEB-DL.1080p.UNTOUCHED.AVC.AAC.ESub-TMV.part01.rar
https://www.heroupload.us/13c8510dea98728e/Ye.Mantram.Vesave.2018.Telugu.WEB-DL.1080p.UNTOUCHED.AVC.AAC.ESub-TMV.part02.rar
https://www.heroupload.us/bbe107385c025c71/Ye.Mantram.Vesave.2018.Telugu.WEB-DL.1080p.UNTOUCHED.AVC.AAC.ESub-TMV.part03.rar
https://www.heroupload.us/250613d7eeaa450f/Ye.Mantram.Vesave.2018.Telugu.WEB-DL.1080p.UNTOUCHED.AVC.AAC.ESub-TMV.part04.rar
https://www.heroupload.us/b68503a68e9f4271/Ye.Mantram.Vesave.2018.Telugu.WEB-DL.1080p.UNTOUCHED.AVC.AAC.ESub-TMV.part05.rar
https://www.heroupload.us/e153e562c634dffa/Ye.Mantram.Vesave.2018.Telugu.WEB-DL.1080p.UNTOUCHED.AVC.AAC.ESub-TMV.part06.rar
https://www.heroupload.us/042a53591a22e677/Ye.Mantram.Vesave.2018.Telugu.WEB-DL.1080p.UNTOUCHED.AVC.AAC.ESub-TMV.part07.rar
https://www.heroupload.us/92bf01b56e0131e7/Ye.Mantram.Vesave.2018.Telugu.WEB-DL.1080p.UNTOUCHED.AVC.AAC.ESub-TMV.part08.rar
https://www.heroupload.us/d16d4ab010cfb2a0/Ye.Mantram.Vesave.2018.Telugu.WEB-DL.1080p.UNTOUCHED.AVC.AAC.ESub-TMV.part09.rar



https://filefloater.com/1Lms/Ye.Mantram.Vesave.2018.Telugu.WEB-DL.1080p.UNTOUCHED.AVC.AAC.ESub-TMV.part01.rar
https://filefloater.com/1llz/Ye.Mantram.Vesave.2018.Telugu.WEB-DL.1080p.UNTOUCHED.AVC.AAC.ESub-TMV.part02.rar
https://filefloater.com/1Lmu/Ye.Mantram.Vesave.2018.Telugu.WEB-DL.1080p.UNTOUCHED.AVC.AAC.ESub-TMV.part03.rar
https://filefloater.com/1Lmv/Ye.Mantram.Vesave.2018.Telugu.WEB-DL.1080p.UNTOUCHED.AVC.AAC.ESub-TMV.part04.rar
https://filefloater.com/1Lmw/Ye.Mantram.Vesave.2018.Telugu.WEB-DL.1080p.UNTOUCHED.AVC.AAC.ESub-TMV.part05.rar
https://filefloater.com/1llD/Ye.Mantram.Vesave.2018.Telugu.WEB-DL.1080p.UNTOUCHED.AVC.AAC.ESub-TMV.part06.rar
https://filefloater.com/1llE/Ye.Mantram.Vesave.2018.Telugu.WEB-DL.1080p.UNTOUCHED.AVC.AAC.ESub-TMV.part07.rar
https://filefloater.com/1llF/Ye.Mantram.Vesave.2018.Telugu.WEB-DL.1080p.UNTOUCHED.AVC.AAC.ESub-TMV.part08.rar
https://filefloater.com/1llG/Ye.Mantram.Vesave.2018.Telugu.WEB-DL.1080p.UNTOUCHED.AVC.AAC.ESub-TMV.part09.rar


Buy Premium From My Links & Support Me

Add a comment

Name:* E-Mail:*
Bold Italic Underline Strike | Align left Center Align right | Insert smilies Insert link URLInsert protected URL Select color | Add Hidden Text Insert Quote Convert selected text from selection to Cyrillic (Russian) alphabet Insert spoiler
Enter the code below: *