Rss
Calendar
«    January 2019    »
MonTueWedThuFriSatSun
 123456
78910111213
14151617181920
21222324252627
28293031 
Friends of the site
» » Manmarziyaan (2018) HQ - 1080p - WEB-DL - AVC - AAC - ESub-DUS Exclusive
  • Author: wroser
  • |
  • Comments: 0
  • |
  • Views: 44
Manmarziyaan (2018) HQ - 1080p - WEB-DL - AVC - AAC - ESub-DUS Exclusive





Format                                   : MPEG-4
Format profile                           : Base Media
Codec ID                                 : isom (isom/iso2/avc1/mp41)
File size                                : 13.2 GiB
Duration                                 : 2 h 35 min
Overall bit rate                         : 12.1 Mb/s
Writing application                      : Lavf58.17.101

Video
ID                                       : 1
Format                                   : AVC
Format/Info                              : Advanced Video Codec
Format profile                           : High@L4
Format settings                          : CABAC / 4 Ref Frames
Format settings, CABAC                   : Yes
Format settings, RefFrames               : 4 frames
Codec ID                                 : avc1
Codec ID/Info                            : Advanced Video Coding
Duration                                 : 2 h 35 min
Bit rate                                 : 12.0 Mb/s
Width                                    : 1 920 pixels
Height                                   : 800 pixels
Display aspect ratio                     : 2.40:1
Frame rate mode                          : Constant
Frame rate                               : 24.000 FPS
Color space                              : YUV
Chroma subsampling                       : 4:2:0
Bit depth                                : 8 bits
Scan type                                : Progressive
Bits/(Pixel*Frame)                       : 0.326
Stream size                              : 12.9 GiB (98%)
Writing library                          : x264 core 138

Audio
ID                                       : 2
Format                                   : AAC
Format/Info                              : Advanced Audio Codec
Format profile                           : LC
Codec ID                                 : mp4a-40-2
Duration                                 : 2 h 35 min
Bit rate mode                            : Constant
Bit rate                                 : 192 kb/s
Channel(s)                               : 2 channels
Channel positions                        : Front: L R
Sampling rate                            : 48.0 kHz
Frame rate                               : 46.875 FPS (1024 SPF)
Compression mode                         : Lossy
Stream size                              : 213 MiB (2%)
Default                                  : Yes
Alternate group                          : 1



Manmarziyaan (2018) HQ - 1080p - WEB-DL - AVC - AAC - ESub-DUS ExclusiveManmarziyaan (2018) HQ - 1080p - WEB-DL - AVC - AAC - ESub-DUS ExclusiveManmarziyaan (2018) HQ - 1080p - WEB-DL - AVC - AAC - ESub-DUS ExclusiveManmarziyaan (2018) HQ - 1080p - WEB-DL - AVC - AAC - ESub-DUS ExclusiveManmarziyaan (2018) HQ - 1080p - WEB-DL - AVC - AAC - ESub-DUS ExclusiveManmarziyaan (2018) HQ - 1080p - WEB-DL - AVC - AAC - ESub-DUS Exclusive


SINGLE DIRECT FAST LINKS

https://www.heroupload.us/d54b7d44588b9a92/Manmarziyaan.2018.12mbps.1080p.WEB-DL.AAC.ESub-DUS.part01.rar



1GB LINKS


https://www.heroupload.us/d54b7d44588b9a92/Manmarziyaan.2018.12mbps.1080p.WEB-DL.AAC.ESub-DUS.part01.rar
https://www.heroupload.us/327395e2058a84bf/Manmarziyaan.2018.12mbps.1080p.WEB-DL.AAC.ESub-DUS.part02.rar
https://www.heroupload.us/b232a3d6c16dac72/Manmarziyaan.2018.12mbps.1080p.WEB-DL.AAC.ESub-DUS.part03.rar
https://www.heroupload.us/89b78992f11008ca/Manmarziyaan.2018.12mbps.1080p.WEB-DL.AAC.ESub-DUS.part04.rar
https://www.heroupload.us/47e06269cc4ff4c8/Manmarziyaan.2018.12mbps.1080p.WEB-DL.AAC.ESub-DUS.part05.rar
https://www.heroupload.us/1dce49a91edd580e/Manmarziyaan.2018.12mbps.1080p.WEB-DL.AAC.ESub-DUS.part06.rar
https://www.heroupload.us/7d7e35875dd9e962/Manmarziyaan.2018.12mbps.1080p.WEB-DL.AAC.ESub-DUS.part07.rar
https://www.heroupload.us/de8873375c0188e2/Manmarziyaan.2018.12mbps.1080p.WEB-DL.AAC.ESub-DUS.part08.rar
https://www.heroupload.us/2e34e6c092f5912f/Manmarziyaan.2018.12mbps.1080p.WEB-DL.AAC.ESub-DUS.part09.rar
https://www.heroupload.us/6b9da7f8ea778865/Manmarziyaan.2018.12mbps.1080p.WEB-DL.AAC.ESub-DUS.part10.rar
https://www.heroupload.us/332c0eddd70d4663/Manmarziyaan.2018.12mbps.1080p.WEB-DL.AAC.ESub-DUS.part11.rar
https://www.heroupload.us/ea87159b4cb694c9/Manmarziyaan.2018.12mbps.1080p.WEB-DL.AAC.ESub-DUS.part12.rar
https://www.heroupload.us/da885cc01863dcce/Manmarziyaan.2018.12mbps.1080p.WEB-DL.AAC.ESub-DUS.part13.rar
https://www.heroupload.us/b116c2c9bf4a8960/Manmarziyaan.2018.12mbps.1080p.WEB-DL.AAC.ESub-DUS.part14.rar
https://www.heroupload.us/fd390c36623ddea4/Manmarziyaan.2018.12mbps.1080p.WEB-DL.AAC.ESub-DUS.srt



Buy Premium From My Links & Support Me

Add a comment

Name:* E-Mail:*
Bold Italic Underline Strike | Align left Center Align right | Insert smilies Insert link URLInsert protected URL Select color | Add Hidden Text Insert Quote Convert selected text from selection to Cyrillic (Russian) alphabet Insert spoiler
Enter the code below: *