Rss
Calendar
«    January 2019    »
MonTueWedThuFriSatSun
 123456
78910111213
14151617181920
21222324252627
28293031 
Friends of the site
» » Lover (2018) Telugu - 720p - WEB-DL - AVC - DD5.1 - ESub-TMV
  • Author: wroser
  • |
  • Comments: 0
  • |
  • Views: 49
Lover (2018) Telugu - 720p - WEB-DL - AVC - DD5.1 - ESub-TMV





Format                      : Matroska
Format version              : Version 4 / Version 2
File size                   : 5.37 GiB
Duration                    : 2 h 5 min
Overall bit rate            : 6 124 kb/s
Encoded date                : UTC 2018-11-25 12:28:55
Writing application         : mkvmerge v25.0.0 ('Prog Noir') 32-bit
Writing library             : libebml v1.3.6 + libmatroska v1.4.9

Video
ID                          : 1
Format                      : AVC
Format/Info                 : Advanced Video Codec
Format profile              : High@L3.1
Format settings, CABAC      : Yes
Format settings, RefFrames  : 4 frames
Format settings, GOP        : M=4, N=48
Codec ID                    : V_MPEG4/ISO/AVC
Duration                    : 2 h 5 min
Bit rate mode               : Constant
Bit rate                    : 6 000 kb/s
Width                       : 1 280 pixels
Height                      : 544 pixels
Display aspect ratio        : 2.35:1
Frame rate mode             : Constant
Frame rate                  : 24.000 FPS
Color space                 : YUV
Chroma subsampling          : 4:2:0
Bit depth                   : 8 bits
Scan type                   : Progressive
Bits/(Pixel*Frame)          : 0.359
Stream size                 : 5.15 GiB (96%)
Default                     : Yes
Forced                      : No
Color range                 : Limited
Color primaries             : BT.709
Transfer characteristics    : BT.709
Matrix coefficients         : BT.709

Audio
ID                          : 2
Format                      : E-AC-3
Format/Info                 : Enhanced Audio Coding 3
Format settings, Endianness : Big
Codec ID                    : A_EAC3
Duration                    : 2 h 5 min
Bit rate mode               : Constant
Bit rate                    : 256 kb/s
Channel(s)                  : 6 channels
Channel positions           : Front: L C R, Side: L R, LFE
Sampling rate               : 48.0 kHz
Frame rate                  : 187.500 FPS (256 SPF)
Compression mode            : Lossy
Stream size                 : 230 MiB (4%)
Title                       : Telugu
Language                    : Telugu
Service kind                : Complete Main
Default                     : No
Forced                      : No

Text
ID                          : 3
Format                      : UTF-8
Codec ID                    : S_TEXT/UTF8
Codec ID/Info               : UTF-8 Plain Text
Duration                    : 1 h 59 min
Bit rate                    : 64 b/s
Count of elements           : 1547
Stream size                 : 56.1 KiB (0%)
Title                       : English [SDH]
Language                    : English
Default                     : No
Forced                      : No


Lover (2018) Telugu - 720p - WEB-DL - AVC - DD5.1 - ESub-TMVLover (2018) Telugu - 720p - WEB-DL - AVC - DD5.1 - ESub-TMVLover (2018) Telugu - 720p - WEB-DL - AVC - DD5.1 - ESub-TMVLover (2018) Telugu - 720p - WEB-DL - AVC - DD5.1 - ESub-TMVLover (2018) Telugu - 720p - WEB-DL - AVC - DD5.1 - ESub-TMVLover (2018) Telugu - 720p - WEB-DL - AVC - DD5.1 - ESub-TMV

SINGLE DIRECT FAST LINKS

https://www.heroupload.us/170d8d5c775dcb06/Lover.2018.Telugu.WEB-DL.720p.UNTOUCHED.AVC.DD5.1.ESub-TMV.mkv


1GB LINKS



https://www.heroupload.us/40051bcb41181287/Lover.2018.Telugu.WEB-DL.720p.UNTOUCHED.AVC.DD5.1.ESub-TMV.part1.rar
https://www.heroupload.us/b0168af034731d0a/Lover.2018.Telugu.WEB-DL.720p.UNTOUCHED.AVC.DD5.1.ESub-TMV.part2.rar
https://www.heroupload.us/6d7af3793971e8d6/Lover.2018.Telugu.WEB-DL.720p.UNTOUCHED.AVC.DD5.1.ESub-TMV.part3.rar
https://www.heroupload.us/e9464917ccc43cf1/Lover.2018.Telugu.WEB-DL.720p.UNTOUCHED.AVC.DD5.1.ESub-TMV.part4.rar
https://www.heroupload.us/448ef759117bfdf1/Lover.2018.Telugu.WEB-DL.720p.UNTOUCHED.AVC.DD5.1.ESub-TMV.part5.rar
https://www.heroupload.us/2d95f6e75b130905/Lover.2018.Telugu.WEB-DL.720p.UNTOUCHED.AVC.DD5.1.ESub-TMV.part6.rar


Buy Premium From My Links & Support Me

Add a comment

Name:* E-Mail:*
Bold Italic Underline Strike | Align left Center Align right | Insert smilies Insert link URLInsert protected URL Select color | Add Hidden Text Insert Quote Convert selected text from selection to Cyrillic (Russian) alphabet Insert spoiler
Enter the code below: *