Rss
Calendar
«    January 2019    »
MonTueWedThuFriSatSun
 123456
78910111213
14151617181920
21222324252627
28293031 
Friends of the site
» » Apharan (2018) Season 1 - 1080p - WEB-HD - AVC - AAC-ALTBalaji 18+
  • Author: wroser
  • |
  • Comments: 0
  • |
  • Views: 71
Apharan (2018) Season 1 - 1080p - WEB-HD - AVC - AAC-ALTBalaji 18+







General
Complete name                            : Episode 2.mp4
Format                                   : MPEG-4
Format profile                           : Base Media
Codec ID                                 : isom (isom/iso2/avc1/mp41)
File size                                : 1.38 GiB
Duration                                 : 24 min 18 s
Overall bit rate                         : 8 120 kb/s
Writing application                      : Lavf58.17.101

Video
ID                                       : 1
Format                                   : AVC
Format/Info                              : Advanced Video Codec
Format profile                           : High@L4
Format settings                          : CABAC / 4 Ref Frames
Format settings, CABAC                   : Yes
Format settings, RefFrames               : 4 frames
Codec ID                                 : avc1
Codec ID/Info                            : Advanced Video Coding
Duration                                 : 24 min 18 s
Bit rate                                 : 8 000 kb/s
Width                                    : 1 920 pixels
Height                                   : 1 088 pixels
Display aspect ratio                     : 16:9
Frame rate mode                          : Constant
Frame rate                               : 25.000 FPS
Color space                              : YUV
Chroma subsampling                       : 4:2:0
Bit depth                                : 8 bits
Scan type                                : Progressive
Bits/(Pixel*Frame)                       : 0.153
Stream size                              : 1.36 GiB (98%)
Writing library                          : x264 core 138

Audio
ID                                       : 2
Format                                   : AAC
Format/Info                              : Advanced Audio Codec
Format profile                           : LC
Codec ID                                 : mp4a-40-2
Duration                                 : 24 min 18 s
Bit rate mode                            : Constant
Bit rate                                 : 128 kb/s
Channel(s)                               : 2 channels
Channel positions                        : Front: L R
Sampling rate                            : 48.0 kHz
Frame rate                               : 46.875 FPS (1024 SPF)
Compression mode                         : Lossy
Stream size                              : 22.3 MiB (2%)
Default                                  : Yes
Alternate group                          : 1

Apharan (2018) Season 1 - 1080p - WEB-HD - AVC - AAC-ALTBalaji 18+Apharan (2018) Season 1 - 1080p - WEB-HD - AVC - AAC-ALTBalaji 18+Apharan (2018) Season 1 - 1080p - WEB-HD - AVC - AAC-ALTBalaji 18+Apharan (2018) Season 1 - 1080p - WEB-HD - AVC - AAC-ALTBalaji 18+Apharan (2018) Season 1 - 1080p - WEB-HD - AVC - AAC-ALTBalaji 18+Apharan (2018) Season 1 - 1080p - WEB-HD - AVC - AAC-ALTBalaji 18+Apharan (2018) Season 1 - 1080p - WEB-HD - AVC - AAC-ALTBalaji 18+Apharan (2018) Season 1 - 1080p - WEB-HD - AVC - AAC-ALTBalaji 18+Apharan (2018) Season 1 - 1080p - WEB-HD - AVC - AAC-ALTBalaji 18+Apharan (2018) Season 1 - 1080p - WEB-HD - AVC - AAC-ALTBalaji 18+Apharan (2018) Season 1 - 1080p - WEB-HD - AVC - AAC-ALTBalaji 18+


SINGLE DIRECT FAST LINKS


https://www.heroupload.us/00dd6f29835b849c/Apharan-Episode.1.mp4
https://www.heroupload.us/828246bd3a8cef66/Apharan-Episode.2.mp4
https://www.heroupload.us/56f7c4b3063dcf93/Apharan-Episode.3.mp4
https://www.heroupload.us/34c9f03323b0727b/Apharan-Episode.4.mp4
https://www.heroupload.us/42dec2c2fc80464d/Apharan-Episode.5.mp4
https://www.heroupload.us/e34efbf1f7e355fb/Apharan-Episode.6.mp4
https://www.heroupload.us/55d314918c078801/Apharan-Episode.7.mp4
https://www.heroupload.us/a84810606ea1d610/Apharan-Episode.8.mp4
https://www.heroupload.us/a98368f4ebe293bd/Apharan-Episode.9.mp4
https://www.heroupload.us/0ee1252368f0a839/Apharan-Episode.10.mp4
https://www.heroupload.us/da5c56ef755520ee/Apharan-Episode.11.mp4
https://www.heroupload.us/99808672c9f81d71/Apharan-Episode.12.mp4


Buy Premium From My Links & Support Me

Add a comment

Name:* E-Mail:*
Bold Italic Underline Strike | Align left Center Align right | Insert smilies Insert link URLInsert protected URL Select color | Add Hidden Text Insert Quote Convert selected text from selection to Cyrillic (Russian) alphabet Insert spoiler
Enter the code below: *