Rss
Calendar
«    July 2019    »
MonTueWedThuFriSatSun
1234567
891011121314
15161718192021
22232425262728
293031 
Friends of the site
» » Supreme Khiladi 2 (2018) Hindi - 1080p - WEB-HD - AVC - AAC-Aditya Exclusive
  • Author: wroser
  • |
  • Comments: 0
  • |
  • Views: 117
Supreme Khiladi 2 (2018) Hindi - 1080p - WEB-HD - AVC - AAC-Aditya Exclusive





Format                      : MPEG-4
Format profile              : Base Media
Codec ID                    : isom (isom/iso2/avc1/mp41)
File size                   : 3.47 GiB
Duration                    : 2 h 20 min
Overall bit rate            : 3 538 kb/s
Writing application         : Lavf58.9.100

Video
ID                          : 1
Format                      : AVC
Format/Info                 : Advanced Video Codec
Format profile              : High@L4
Format settings, CABAC      : Yes
Format settings, RefFrames  : 3 frames
Codec ID                    : avc1
Codec ID/Info               : Advanced Video Coding
Duration                    : 2 h 20 min
Bit rate                    : 3 404 kb/s
Width                       : 1 920 pixels
Height                      : 1 080 pixels
Display aspect ratio        : 16:9
Frame rate mode             : Constant
Frame rate                  : 25.000 FPS
Color space                 : YUV
Chroma subsampling          : 4:2:0
Bit depth                   : 8 bits
Scan type                   : Progressive
Bits/(Pixel*Frame)          : 0.066
Stream size                 : 3.34 GiB (96%)
Color range                 : Limited
Color primaries             : BT.709
Transfer characteristics    : BT.709
Matrix coefficients         : BT.709

Audio
ID                          : 2
Format                      : AAC
Format/Info                 : Advanced Audio Codec
Format profile              : LC
Codec ID                    : 40
Duration                    : 2 h 20 min
Bit rate mode               : Constant
Bit rate                    : 128 kb/s
Channel(s)                  : 2 channels
Channel positions           : Front: L R
Sampling rate               : 44.1 kHz
Frame rate                  : 43.066 FPS (1024 SPF)
Compression mode            : Lossy
Stream size                 : 129 MiB (4%)
Language                    : English
Default                     : Yes
Alternate group             : 1


Supreme Khiladi 2 (2018) Hindi - 1080p - WEB-HD - AVC - AAC-Aditya ExclusiveSupreme Khiladi 2 (2018) Hindi - 1080p - WEB-HD - AVC - AAC-Aditya ExclusiveSupreme Khiladi 2 (2018) Hindi - 1080p - WEB-HD - AVC - AAC-Aditya ExclusiveSupreme Khiladi 2 (2018) Hindi - 1080p - WEB-HD - AVC - AAC-Aditya Exclusive


SINGLE DIRECT FAST LINKS

https://www.heroupload.us/318ef110db325d4f/Supreme.Khiladi-2.2018.Hindi.1080p.WEB-HD.AVC.AAC-Aditya.Exclusive.mp4


1GB LINKS


https://www.heroupload.us/e9c54c3ab12cc14d/Supreme.Khiladi-2.2018.Hindi.1080p.WEB-HD.AVC.AAC-Aditya.Exclusive.part1.rar
https://www.heroupload.us/2905f6114f7841c7/Supreme.Khiladi-2.2018.Hindi.1080p.WEB-HD.AVC.AAC-Aditya.Exclusive.part2.rar
https://www.heroupload.us/ca6e798fa7657eae/Supreme.Khiladi-2.2018.Hindi.1080p.WEB-HD.AVC.AAC-Aditya.Exclusive.part3.rar
https://www.heroupload.us/7e126223bb992cf7/Supreme.Khiladi-2.2018.Hindi.1080p.WEB-HD.AVC.AAC-Aditya.Exclusive.part4.rar


Buy Premium From My Links & Support Me

Add a comment

Name:* E-Mail:*
Bold Italic Underline Strike | Align left Center Align right | Insert smilies Insert link URLInsert protected URL Select color | Add Hidden Text Insert Quote Convert selected text from selection to Cyrillic (Russian) alphabet Insert spoiler
Enter the code below: *